Секс в большом городе / Sex And The City / Сезон: 1-6 / Серии: 1-94 (94) (Даррен Стар / Darren Star) [1998-2004, США, мелодрама, комедия, DVDRip-AVC] MVO (НТВ) + Original 

Цитировать
Секс в большом городе / Sex And The City / DVDRip-AVC / 1-6 Сезоны
Год выпуска: 1998-2004
Страна: США
Жанр: мелодрама, комедия
Продолжительность: 00:30:00
Перевод: Профессиональный многоголосый закадровый - НТВ
Русские субтитры: нет
Субтитры: отсутствуют
Режиссёр: Даррен Стар / Darren Star
В ролях: Сара Джессика Паркер,Ким Кэтролл,Кристин Дэвис,Синтия Никсон,Крис Нот,Дэвид Эйденберг,Уилли Гарсон,Кайл МакЛоклен,Джон Корбетт,Эван Хэндлер...
Описание: Сериал Секс в Большом городе – это собственно четыре подруги - Кэрри Брэдшоу (Сара Джессика Паркер), Миранда Хоббс (Синтия Никсон), Шарлотта Йорк (Кристин Дэвис) и Саманта Джонс (Ким Кэттролл) - четыре самостоятельных личности, четыре разных взгляда на жизнь и четыре способа разрешения жизненных сложных ситуаций. Вольные жительницы Большого яблока - Нью-Йорка, смело перешагнувшие тридцатилетний рубеж, уверенные в себе и откровенные в разговорах друг с другом. Искрометный юмор, яркие образы, пикантные темы - вот главные козыри Секса в большом городе, сериала, который дает женщинам повод искренне сопереживать главным героиням, а мужчинам - проникнуть в таинственный мир женских проблем. Это сериал о женщинах, стремящихся к устойчивым отношениям; они хотят общения с людьми, но всегда идут своей дорогой. У них уже выставлена защита, все они были влюблены, все они страдали и бывали замужем, а теперь смотрят на жизнь с легким цинизмом. У них нет тайн друг от друга, как впрочем и от зрителей.
Ссылка на предыдущие и альтернативные раздачи: http://rutracker.org/forum/viewforum.php?f=193
Сэмпл: http://narod.ru/disk/39770307001/0607%20-%20The%20Post-it%20Always%20Sticks%20Twi...0Sample.mkv.html
Качество: DVDRip-AVC
Формат: MKV
Видео кодек: H.264
Аудио кодек: AC3
Видео: 704 Х 528 / 25 fps / ~1800 kbp/s / 0.2 bt/px
Аудио: 2.0 / 48 KHz / ~192 kbp/s
Аудио 2: 2.0 / 48 KHz / ~192 kbp/s

1 Сезон

Качество: DVDRip
Формат: MKV
Видео кодек: H.264
Аудио кодек: AC3
Видео: 704 Х 528 / 25 fps / ~2450 kbp/s / 0.168 bt/px
Аудио: 2.0 / 48 KHz / ~192 kbp/s
Аудио 2: 2.0 / 48 KHz / ~192 kbp/s

MI

General
Unique ID : 242460334976583731791581733669559817518 (0xB668297546EECFEE84A268E347DB552E)
Complete name : O:\Сериалы\Секс в большом городе\Sex in City DVD-Rip-AVC\01\0111 - The Drought.mkv
Format : Matroska
Format version : Version 2
File size : 513 MiB
Duration : 25mn 3s
Overall bit rate : 2 862 Kbps
Movie name : Секс в большом городе - 0111 - Засуха (The Drought) / Релиз - D2T/"Криволапый ювелир"
Encoded date : UTC 2012-07-23 18:59:15
Writing application : mkvmerge v4.0.0 ('The Stars were mine') сборка от Jun 6 2010 16:18:42
Writing library : libebml v1.0.0 + libmatroska v1.0.0
Video
ID : 1
Format : AVC
Format/Info : Advanced Video Codec
Format profile : [email protected]
Format settings, CABAC : Yes
Format settings, ReFrames : 4 frames
Codec ID : V_MPEG4/ISO/AVC
Duration : 25mn 3s
Bit rate : 2 421 Kbps
Width : 704 pixels
Height : 528 pixels
Display aspect ratio : 4:3
Frame rate : 25.000 fps
Color space : YUV
Chroma subsampling : 4:2:0
Bit depth : 8 bits
Scan type : Progressive
Bits/(Pixel*Frame) : 0.261
Stream size : 434 MiB (85%)
Writing library : x264 core 120 r2164 da19765
Encoding settings : cabac=1 / ref=4 / deblock=1:0:0 / analyse=0x3:0x113 / me=tesa / subme=9 / psy=1 / psy_rd=1.00:0.00 / mixed_ref=1 / me_range=16 / chroma_me=1 / trellis=2 / 8x8dct=1 / cqm=0 / deadzone=21,11 / fast_pskip=1 / chroma_qp_offset=-2 / threads=6 / sliced_threads=0 / nr=0 / decimate=1 / interlaced=0 / bluray_compat=0 / constrained_intra=0 / bframes=4 / b_pyramid=2 / b_adapt=2 / b_bias=0 / direct=3 / weightb=1 / open_gop=0 / weightp=2 / keyint=150 / keyint_min=1 / scenecut=33 / intra_refresh=0 / rc=cqp / mbtree=0 / qp=20 / ip_ratio=1.40 / pb_ratio=1.30 / aq=0
Language : English
Audio #1
ID : 2
Format : AC-3
Format/Info : Audio Coding 3
Mode extension : CM (complete main)
Codec ID : A_AC3
Duration : 25mn 3s
Bit rate mode : Constant
Bit rate : 192 Kbps
Channel(s) : 2 channels
Channel positions : Front: L R
Sampling rate : 48.0 KHz
Bit depth : 16 bits
Compression mode : Lossy
Stream size : 34.4 MiB (7%)
Language : Russian
Audio #2
ID : 3
Format : AC-3
Format/Info : Audio Coding 3
Mode extension : CM (complete main)
Codec ID : A_AC3
Duration : 25mn 3s
Bit rate mode : Constant
Bit rate : 192 Kbps
Channel(s) : 2 channels
Channel positions : Front: L R
Sampling rate : 48.0 KHz
Bit depth : 16 bits
Compression mode : Lossy
Stream size : 34.4 MiB (7%)
Language : English

2 Сезон

Качество: DVDRip
Формат: MKV
Видео кодек: H.264
Аудио кодек: AC3
Видео: 704 Х 528 / 25 fps / ~1950 kbp/s / 0.168 bt/px
Аудио: 2.0 / 48 KHz / ~192 kbp/s
Аудио 2: 2.0 / 48 KHz / ~192 kbp/s

MI

General
Unique ID : 177828197865352700289323438765489304384 (0x85C877124527747BBF2417E930F8B340)
Complete name : O:\Сериалы\Секс в большом городе\Sex in City DVD-Rip-AVC\02\0205 - Four Women and a Funera.mkv
Format : Matroska
Format version : Version 2
File size : 454 MiB
Duration : 26mn 50s
Overall bit rate : 2 366 Kbps
Movie name : Секс в большом городе - 0205 - 4 женщины и одни похороны (Four Women and a Funeral) / Релиз - D2T/"Криволапый ювелир"
Encoded date : UTC 2012-07-23 18:15:24
Writing application : mkvmerge v4.0.0 ('The Stars were mine') сборка от Jun 6 2010 16:18:42
Writing library : libebml v1.0.0 + libmatroska v1.0.0
Video
ID : 1
Format : AVC
Format/Info : Advanced Video Codec
Format profile : [email protected]
Format settings, CABAC : Yes
Format settings, ReFrames : 4 frames
Codec ID : V_MPEG4/ISO/AVC
Duration : 26mn 50s
Bit rate : 1 935 Kbps
Width : 704 pixels
Height : 528 pixels
Display aspect ratio : 4:3
Frame rate : 25.000 fps
Color space : YUV
Chroma subsampling : 4:2:0
Bit depth : 8 bits
Scan type : Progressive
Bits/(Pixel*Frame) : 0.208
Stream size : 371 MiB (82%)
Writing library : x264 core 120 r2164 da19765
Encoding settings : cabac=1 / ref=4 / deblock=1:0:0 / analyse=0x3:0x113 / me=tesa / subme=9 / psy=1 / psy_rd=1.00:0.00 / mixed_ref=1 / me_range=16 / chroma_me=1 / trellis=2 / 8x8dct=1 / cqm=0 / deadzone=21,11 / fast_pskip=1 / chroma_qp_offset=-2 / threads=6 / sliced_threads=0 / nr=0 / decimate=1 / interlaced=0 / bluray_compat=0 / constrained_intra=0 / bframes=4 / b_pyramid=2 / b_adapt=2 / b_bias=0 / direct=3 / weightb=1 / open_gop=0 / weightp=2 / keyint=150 / keyint_min=1 / scenecut=33 / intra_refresh=0 / rc=cqp / mbtree=0 / qp=20 / ip_ratio=1.40 / pb_ratio=1.30 / aq=0
Language : English
Audio #1
ID : 2
Format : AC-3
Format/Info : Audio Coding 3
Mode extension : CM (complete main)
Codec ID : A_AC3
Duration : 26mn 50s
Bit rate mode : Constant
Bit rate : 192 Kbps
Channel(s) : 2 channels
Channel positions : Front: L R
Sampling rate : 48.0 KHz
Bit depth : 16 bits
Compression mode : Lossy
Stream size : 36.9 MiB (8%)
Language : Russian
Audio #2
ID : 3
Format : AC-3
Format/Info : Audio Coding 3
Mode extension : CM (complete main)
Codec ID : A_AC3
Duration : 26mn 50s
Bit rate mode : Constant
Bit rate : 192 Kbps
Channel(s) : 2 channels
Channel positions : Front: L R
Sampling rate : 48.0 KHz
Bit depth : 16 bits
Compression mode : Lossy
Stream size : 36.9 MiB (8%)
Language : English

Скриншоты

3 Сезон

Качество: DVDRip
Формат: MKV
Видео кодек: H.264
Аудио кодек: AC3
Видео: 704 Х 528 / 25 fps / ~1750 kbp/s / 0.168 bt/px
Аудио: 2.0 / 48 KHz / ~192 kbp/s
Аудио 2: 2.0 / 48 KHz / ~192 kbp/s

MI

General
Unique ID : 199585967026582353843824104834329105483 (0x9626DBE9E354C666922557F88ACA544B)
Complete name : O:\Сериалы\Секс в большом городе\Sex in City DVD-Rip-AVC\03\0317 - What Goes Around Comes Around.mkv
Format : Matroska
Format version : Version 2
File size : 445 MiB
Duration : 29mn 4s
Overall bit rate : 2 139 Kbps
Movie name : Секс в большом городе - 0317 - Как аукнется, так и откликнется (What Goes Around Comes Around) / Релиз - D2T/"Криволапый ювелир"
Encoded date : UTC 2012-07-28 19:17:29
Writing application : mkvmerge v4.0.0 ('The Stars were mine') сборка от Jun 6 2010 16:18:42
Writing library : libebml v1.0.0 + libmatroska v1.0.0
Video
ID : 1
Format : AVC
Format/Info : Advanced Video Codec
Format profile : [email protected]
Format settings, CABAC : Yes
Format settings, ReFrames : 4 frames
Codec ID : V_MPEG4/ISO/AVC
Duration : 29mn 4s
Bit rate : 1 712 Kbps
Width : 704 pixels
Height : 528 pixels
Display aspect ratio : 4:3
Frame rate : 25.000 fps
Color space : YUV
Chroma subsampling : 4:2:0
Bit depth : 8 bits
Scan type : Progressive
Bits/(Pixel*Frame) : 0.184
Stream size : 356 MiB (80%)
Writing library : x264 core 120 r2164 da19765
Encoding settings : cabac=1 / ref=4 / deblock=1:0:0 / analyse=0x3:0x113 / me=tesa / subme=9 / psy=1 / psy_rd=1.00:0.00 / mixed_ref=1 / me_range=16 / chroma_me=1 / trellis=2 / 8x8dct=1 / cqm=0 / deadzone=21,11 / fast_pskip=1 / chroma_qp_offset=-2 / threads=6 / sliced_threads=0 / nr=0 / decimate=1 / interlaced=0 / bluray_compat=0 / constrained_intra=0 / bframes=4 / b_pyramid=2 / b_adapt=2 / b_bias=0 / direct=3 / weightb=1 / open_gop=0 / weightp=2 / keyint=150 / keyint_min=1 / scenecut=33 / intra_refresh=0 / rc=cqp / mbtree=0 / qp=20 / ip_ratio=1.40 / pb_ratio=1.30 / aq=0
Language : English
Audio #1
ID : 2
Format : AC-3
Format/Info : Audio Coding 3
Mode extension : CM (complete main)
Codec ID : A_AC3
Duration : 29mn 4s
Bit rate mode : Constant
Bit rate : 192 Kbps
Channel(s) : 2 channels
Channel positions : Front: L R
Sampling rate : 48.0 KHz
Bit depth : 16 bits
Compression mode : Lossy
Stream size : 39.9 MiB (9%)
Language : Russian
Audio #2
ID : 3
Format : AC-3
Format/Info : Audio Coding 3
Mode extension : CM (complete main)
Codec ID : A_AC3
Duration : 29mn 4s
Bit rate mode : Constant
Bit rate : 192 Kbps
Channel(s) : 2 channels
Channel positions : Front: L R
Sampling rate : 48.0 KHz
Bit depth : 16 bits
Compression mode : Lossy
Stream size : 39.9 MiB (9%)
Language : English

Скриншоты

4 Сезон

Качество: DVDRip
Формат: MKV
Видео кодек: H.264
Аудио кодек: AC3
Видео: 704 Х 528 / 25 fps / ~1550 kbp/s / 0.168 bt/px
Аудио: 2.0 / 48 KHz / ~192 kbp/s
Аудио 2: 2.0 / 48 KHz / ~192 kbp/s
Описание: Кэрри залечивает болезненные любовные раны и не может понять, кого же она любит сильнее — Эйдана или Мужчину своей мечты? Шарлотта счастлива в браке с Треем, только вот постоянное вмешательство матери Трея, Банни (Френсис Стернхаген), в их семейные дела не устраивает её, к тому же, как оказалось, у Трея имелись серьёзные проблемы с потенцией. Стив открывает бар совместно с Эйданом. Саманта, после продолжительного романа со страстной Марией (Соня Брага), понимает, что жить с женщиной она не хочет. Через некоторое время она занимается пиар-компанией отелей знаменитого бизнесмена Ричарда (Джеймс Ремар), и в него же влюбляется.

MI

General
Unique ID : 210299747954791129351960654667832134334 (0x9E364218A13F74919F191EE81BB08ABE)
Complete name : O:\Сериалы\Секс в большом городе\Sex in City DVD-Rip-AVC\04\0417 - A 'Vogue' Idea.mkv
Format : Matroska
Format version : Version 2
File size : 402 MiB
Duration : 28mn 20s
Overall bit rate : 1 985 Kbps
Movie name : Секс в большом городе (Сезон 4) - 17 - Жизнь в стиле Вог (A 'Vogue' Idea) / Релиз - D2T/"Криволапый ювелир"
Encoded date : UTC 2012-03-25 16:58:25
Writing application : mkvmerge v4.0.0 ('The Stars were mine') сборка от Jun 6 2010 16:18:42
Writing library : libebml v1.0.0 + libmatroska v1.0.0
Video
ID : 1
Format : AVC
Format/Info : Advanced Video Codec
Format profile : [email protected]
Format settings, CABAC : Yes
Format settings, ReFrames : 4 frames
Codec ID : V_MPEG4/ISO/AVC
Duration : 28mn 20s
Bit rate : 1 561 Kbps
Width : 704 pixels
Height : 528 pixels
Display aspect ratio : 4:3
Frame rate : 25.000 fps
Color space : YUV
Chroma subsampling : 4:2:0
Bit depth : 8 bits
Scan type : Progressive
Bits/(Pixel*Frame) : 0.168
Stream size : 316 MiB (79%)
Writing library : x264 core 116 r2074 2641b9e
Encoding settings : cabac=1 / ref=4 / deblock=1:0:0 / analyse=0x3:0x113 / me=tesa / subme=9 / psy=1 / psy_rd=1.00:0.00 / mixed_ref=1 / me_range=16 / chroma_me=1 / trellis=2 / 8x8dct=1 / cqm=0 / deadzone=21,11 / fast_pskip=1 / chroma_qp_offset=-2 / threads=6 / sliced_threads=0 / nr=0 / decimate=1 / interlaced=0 / bluray_compat=0 / constrained_intra=0 / bframes=4 / b_pyramid=2 / b_adapt=2 / b_bias=0 / direct=3 / weightb=1 / open_gop=0 / weightp=2 / keyint=150 / keyint_min=1 / scenecut=33 / intra_refresh=0 / rc=cqp / mbtree=0 / qp=20 / ip_ratio=1.40 / pb_ratio=1.30 / aq=0
Language : English
Audio #1
ID : 2
Format : AC-3
Format/Info : Audio Coding 3
Mode extension : CM (complete main)
Codec ID : A_AC3
Duration : 28mn 20s
Bit rate mode : Constant
Bit rate : 192 Kbps
Channel(s) : 2 channels
Channel positions : Front: L R
Sampling rate : 48.0 KHz
Bit depth : 16 bits
Compression mode : Lossy
Stream size : 38.9 MiB (10%)
Title : НТВ
Language : Russian
Audio #2
ID : 3
Format : AC-3
Format/Info : Audio Coding 3
Mode extension : CM (complete main)
Codec ID : A_AC3
Duration : 28mn 20s
Bit rate mode : Constant
Bit rate : 192 Kbps
Channel(s) : 2 channels
Channel positions : Front: L R
Sampling rate : 48.0 KHz
Bit depth : 16 bits
Compression mode : Lossy
Stream size : 38.9 MiB (10%)
Language : English

Скриншоты

5 Сезон

Качество: DVDRip
Формат: MKV
Видео кодек: H.264
Аудио кодек: AC3
Видео: 704 Х 528 / 25 fps / ~1500 kbp/s / 0.161 bt/px
Аудио: 2.0 / 48 KHz / ~192 kbp/s
Аудио 2: 2.0 / 48 KHz / ~192 kbp/s
Сюжет: Крупное издательство предложило Кэрри выпустить книгу, состоящую из её статей. У своего издателя, женщина знакомится с писателем Джеком Бергером (Рон Ливингстон). Они прекрасно проводят время, но, как оказалось, у Бергера есть девушка, и у них серьёзные отношения. Кэрри понимает, что в очередной раз она ошиблась.
Миранда предлагает Кэрри стать крёстной матерью Брэйди, и Шарлотта начинает немного ревновать, так как рассчитывала сама быть крёстной матерью для ребёнка, но потом ревность у неё быстро проходит и она старается помочь Кэрри и Миранде.
Саманта не доверяет Ричарду и сильно ревнует его. Решив проследить за ним, она обнаруживает его в постели с другой женщиной. Ричард замаливает свои грехи дорогими подарками и просит прощенья. Саманта прощает его, но начинает активно поддевать Ричарда, так как самолюбие её сильно задето.
Во время бракоразводного процесса Шарлотта знакомится с адвокатом Гарри Голденблатом (Эван Хендлер), которого выбрала по принципу "акула своего дела" и "антипривлекательный мужчина", с которым возможен только бизнес. Так продолжаются их отношения, Саманта ревнует Ричарда к каждой юбке, но считает себя сильно старой для ревности и бесконечных проверок Ричарда, которому всё равно не доверяет, и ниже своего достоинства вообще этим заниматься. Саманта расстаётся с Ричардом, решив, что в её жизни будут мужчины только для секса.
Проходит долгое время и Кэрри начинает мучаться без секса, и решается на отчаянный шаг. Она назначает встречу Мужчине своей мечты, и едет к нему в Сан-Франциско, в Калифорнию. Супермен искренне рад приезду Кэрри, и хвалит её первую книгу. Кэрри получает то, за чем ездила и возвращается в Нью-Йорк. На серьёзные отношения с Суперменом она и не рассчитывала.

MI

General
Unique ID : 251203875505572933027109980079416624878 (0xBCFC1B4A058A52C682C081C3D6AB46EE)
Complete name : O:\Сериалы\Секс в большом городе\Sex in City DVD-Rip-AVC\05\0502 - Unoriginal Sin.mkv
Format : Matroska
Format version : Version 2
File size : 397 MiB
Duration : 28mn 52s
Overall bit rate : 1 921 Kbps
Movie name : Секс в большом городе (Сезон 5) - 02 - Непервородный грех (Unoriginal Sin) / Релиз - D2T/"Криволапый ювелир"
Encoded date : UTC 2012-02-27 13:38:18
Writing application : mkvmerge v4.0.0 ('The Stars were mine') сборка от Jun 6 2010 16:18:42
Writing library : libebml v1.0.0 + libmatroska v1.0.0
Video
ID : 1
Format : AVC
Format/Info : Advanced Video Codec
Format profile : [email protected]
Format settings, CABAC : Yes
Format settings, ReFrames : 4 frames
Codec ID : V_MPEG4/ISO/AVC
Duration : 28mn 52s
Bit rate : 1 498 Kbps
Width : 704 pixels
Height : 528 pixels
Display aspect ratio : 4:3
Frame rate : 25.000 fps
Color space : YUV
Chroma subsampling : 4:2:0
Bit depth : 8 bits
Scan type : Progressive
Bits/(Pixel*Frame) : 0.161
Stream size : 309 MiB (78%)
Writing library : x264 core 116 r2074 2641b9e
Encoding settings : cabac=1 / ref=4 / deblock=1:0:0 / analyse=0x3:0x113 / me=tesa / subme=9 / psy=1 / psy_rd=1.00:0.00 / mixed_ref=1 / me_range=16 / chroma_me=1 / trellis=2 / 8x8dct=1 / cqm=0 / deadzone=21,11 / fast_pskip=1 / chroma_qp_offset=-2 / threads=6 / sliced_threads=0 / nr=0 / decimate=1 / interlaced=0 / bluray_compat=0 / constrained_intra=0 / bframes=4 / b_pyramid=2 / b_adapt=2 / b_bias=0 / direct=3 / weightb=1 / open_gop=0 / weightp=2 / keyint=150 / keyint_min=1 / scenecut=33 / intra_refresh=0 / rc=cqp / mbtree=0 / qp=20 / ip_ratio=1.40 / pb_ratio=1.30 / aq=0
Language : English
Audio #1
ID : 2
Format : AC-3
Format/Info : Audio Coding 3
Mode extension : CM (complete main)
Codec ID : A_AC3
Duration : 28mn 52s
Bit rate mode : Constant
Bit rate : 192 Kbps
Channel(s) : 2 channels
Channel positions : Front: L R
Sampling rate : 48.0 KHz
Bit depth : 16 bits
Compression mode : Lossy
Stream size : 39.6 MiB (10%)
Title : НТВ
Language : Russian
Audio #2
ID : 3
Format : AC-3
Format/Info : Audio Coding 3
Mode extension : CM (complete main)
Codec ID : A_AC3
Duration : 28mn 52s
Bit rate mode : Constant
Bit rate : 192 Kbps
Channel(s) : 2 channels
Channel positions : Front: L R
Sampling rate : 48.0 KHz
Bit depth : 16 bits
Compression mode : Lossy
Stream size : 39.6 MiB (10%)
Language : English

Скриншоты

6 Сезон

Качество: DVDRip
Формат: MKV
Видео кодек: H.264
Аудио кодек: AC3
Видео: 704 Х 528 / 25 fps / ~1800 kbp/s / 0.2 bt/px
Аудио: 2.0 / 48 KHz / ~192 kbp/s
Аудио 2: 2.0 / 48 KHz / ~192 kbp/s
Сюжет: Кажется, что любовь найти невозможно, последний возлюбленный Кэрри — писатель Джек Бергер — сбегает от неё, оставив прощальную записку. Шарлотта полна решимости женить на себе Гарри, но для этого ей сначала необходимо стать еврейкой; Саманта, кажется, влюбляется в молодого актёра Джареда Смита (Джейсон Льюис), хотя пытается всячески отогнать от себя мысли о романтике и прочей банальности, а Миранда, желая забыть о Стиве, заводит роман с очаровательным доктором Лидсом (Блэр Андервуд). И только Кэрри встречает своего единственного — русского художника, прославленного Александра Петровского (Михаил Барышников), а Мужчина её мечты, тем временем, понимает, что любит Кэрри.
Шарлотта выходит замуж за Гарри по всем традициям еврейского народа и в лучших традициях закона Мерфи. А где-то там на южном побережье Тихого океана ждет своих приемных родителей их маленькая дочь.
Саманта побеждает в борьбе с раком груди и оставляет за собой эксклюзивные права на преданного Смита Джареда.
Миранда признается в любви Стиву и, забывая обо всех своих предубеждениях, выходит за него замуж. Вот то, что никогда не должно было с ней случиться: скромное венчание в маленьком уютном парке, медовый месяц и дом в Бруклине.
Русский художник увез Кэрри в Париж и оставил одиноко бродить по городу её мечты. Такой наряд не пришелся ей в пору. Париж без любимого оказался просто большим городом, а для счастья нужен большой город, который и есть «Любимый», который и есть «Тот самый — единственный». Кэрри встречает в Париже Мистера Бига, и они отправляются в Нью-Йорк. Кэрри и Мужчина Ее мечты всё ещё вместе.

MI

General
Unique ID : 224560597324474977742870727403032242578 (0xA8F0CC415154FFEAA4B2130C78676992)
Complete name : O:\Сериалы\Секс в большом городе\Sex in City DVD-Rip-AVC\06\0607 - The Post-it Always Sticks Twice.mkv
Format : Matroska
Format version : Version 2
File size : 462 MiB
Duration : 28mn 8s
Overall bit rate : 2 293 Kbps
Movie name : Секс в большом городе (Сезон 6) - 07 - Записка всегда приклеивается дважды (The Post-it Always Sticks Twice) / Релиз - D2T/"Криволапый ювелир"
Encoded date : UTC 2012-02-02 15:21:44
Writing application : mkvmerge v4.0.0 ('The Stars were mine') сборка от Jun 6 2010 16:18:42
Writing library : libebml v1.0.0 + libmatroska v1.0.0
Video
ID : 1
Format : AVC
Format/Info : Advanced Video Codec
Format profile : [email protected]
Format settings, CABAC : Yes
Format settings, ReFrames : 4 frames
Codec ID : V_MPEG4/ISO/AVC
Duration : 28mn 8s
Bit rate : 1 864 Kbps
Width : 704 pixels
Height : 528 pixels
Display aspect ratio : 4:3
Frame rate : 25.000 fps
Color space : YUV
Chroma subsampling : 4:2:0
Bit depth : 8 bits
Scan type : Progressive
Bits/(Pixel*Frame) : 0.201
Stream size : 375 MiB (81%)
Writing library : x264 core 116 r2074 2641b9e
Encoding settings : cabac=1 / ref=4 / deblock=1:0:0 / analyse=0x3:0x113 / me=tesa / subme=9 / psy=1 / psy_rd=1.00:0.00 / mixed_ref=1 / me_range=16 / chroma_me=1 / trellis=2 / 8x8dct=1 / cqm=0 / deadzone=21,11 / fast_pskip=1 / chroma_qp_offset=-2 / threads=6 / sliced_threads=0 / nr=0 / decimate=1 / interlaced=0 / bluray_compat=0 / constrained_intra=0 / bframes=4 / b_pyramid=2 / b_adapt=2 / b_bias=0 / direct=3 / weightb=1 / open_gop=0 / weightp=2 / keyint=150 / keyint_min=1 / scenecut=33 / intra_refresh=0 / rc=cqp / mbtree=0 / qp=20 / ip_ratio=1.40 / pb_ratio=1.30 / aq=0
Language : English
Audio #1
ID : 2
Format : AC-3
Format/Info : Audio Coding 3
Mode extension : CM (complete main)
Codec ID : A_AC3
Duration : 28mn 8s
Bit rate mode : Constant
Bit rate : 192 Kbps
Channel(s) : 2 channels
Channel positions : Front: L R
Sampling rate : 48.0 KHz
Bit depth : 16 bits
Compression mode : Lossy
Stream size : 38.7 MiB (8%)
Title : НТВ
Language : Russian
Audio #2
ID : 3
Format : AC-3
Format/Info : Audio Coding 3
Mode extension : CM (complete main)
Codec ID : A_AC3
Duration : 28mn 8s
Bit rate mode : Constant
Bit rate : 192 Kbps
Channel(s) : 2 channels
Channel positions : Front: L R
Sampling rate : 48.0 KHz
Bit depth : 16 bits
Compression mode : Lossy
Stream size : 38.7 MiB (8%)
Language : English

Скриншоты

Внимание! Раздача ведётся путём добавления новых серий

Внимание! Раздача ведётся путём добавления новых серий; при каждом добавлении создётся новый торрент. Чтобы начать докачку новой серии, пользователям необходимо сделать следующее:
(1) остановить скачивание,
(2) удалить старый торрент у себя из клиента (старые серии удалять не надо),
(3) скачать новый торрент и запустить его у себя в клиенте вместо старого, при этом указать клиенту путь в старую папку куда и должно происходить скачивание новых серий.
Ваш клиент при этом должен произвести хеширование (проверку) старой папки (если не производит сам - помогите ему сделать это), и будет докачивать только те серии которых у вас ещё нет. Старые серии при этом не удаляются, а продолжают раздаваться!
Eсли вы уже удалили старые серии, то предотвратить повторную закачку старых серий можно, отжав галочку в соответсвующих местах при запуске нового торрента. По возможности, желательно не удалять старые серии как можно дольше чтобы релизёр не столько продолжал раздавать старые серии, а смог сконцентрироваться на новых.

Релиз

"D2T/Криволапый ювелир"
-Обновлено - 2:20 14.02.13 MSK
-
Английские субтитры http://rghost.ru/6rX9JHNmD - http://rutracker.org/forum/profile.php?mode=viewprofile&u=18230191
ни какого отношения к ним не имею
Вы не можете начинать темы
Вы не можете отвечать на сообщения
Вы не можете редактировать свои сообщения
Вы не можете удалять свои сообщения
Вы не можете голосовать в опросах
Вы не можете прикреплять файлы к сообщениям
Вы можете скачивать файлы
!ВНИМАНИЕ!

Сайт не предоставляет электронные версии произведений, а занимается лишь коллекционированием и каталогизацией ссылок, присылаемых и публикуемых на форуме нашими читателями. Если вы являетесь правообладателем какого-либо представленного материала и не желаете, чтобы ссылка на него находилась в нашем каталоге, свяжитесь с нами, и мы незамедлительно удалим ее. Файлы для обмена на трекере предоставлены пользователями сайта, и администрация не несет ответственности за их содержание. Просьба не заливать файлы, защищенные авторскими правами, а также файлы нелегального содержания!

Искали программы, игры, дополнения, музыка mp3, аниме, аудио книги, журналы? Добро пожаловать на свободный торрент трекер Torrents, у нас можно скачать бесплатно, без смс и регистрации и прочих ограничений лучшие, отборные сборки программ, игр. Скачать торрентом не составит труда даже не опытному пользователю. Раздачи ежедневно обновляются, только лучшие и качественные раздачи, подробные описания и скриншоты. Огромная коллекция программ для работы со звуком, графикой, дизайном, а так же множество плагинов и инструментов к ним с подробной инструкцией и рекомендациями. Прошивки для навигаторов, карты. Разнообразные игры, для Windows, Linux. В коллекцие есть и старые игры любых жанров, Rpg, Action, Shooter, strategy Множество дополнений, модификаций, сценариев для популярных игр в жанре экш, рпг, гонки, стратегии, логические игры. Множество аддонов и сценариев для Microsoft Flight Simulator Большая коллекция книг, учебников. Если нет возможности купить печатное издание - смело скачивайте цифровую версию книги или, быть может, журнала. Не любите читать - можно загрузить бесплатно аудикнигу. Для веб дизайнеров и программистов так же найдется множество специализированного софта, таких как: редакторы с подсветкой, среды программирования, компоненты, системы управления базами данных, разнообразные скрипты и шаблоны. Не так давно у нас появился материал для автолюбителей и владельцев мото - оригинальные и неоригинальные каталоги запчастей, книги и журналы по ремонту и обслуживанию, видеоуроки, статьи по чип тюнингу, прошивкам. Процедура получения контента элементарная, достаточно просто скачать торрент файл и добавить его в загрузку в вашем торрент клиенте. Если у вас нет специального торрент клиента, вы можете его скачать у нас.