Во все тяжкие / Breaking Bad / Сезон: 1 / Серии: 1-7 (A. Bernstein, M. M. MacLaren, V. Gilligan) [2008, США, Криминальная драма, DVD9] 

Цитировать
Во все тяжкие / Breaking Bad
Год выпуска: 2008
Страна: США
Жанр: Криминальная драма
Продолжительность: 05:45:57
Перевод: профессиональный одноголосый закадровый
Русские субтитры: нет
Субтитры: отсутствуют
Режиссёр: A. Bernstein, M. M. MacLaren, V. Gilligan
В ролях: Bryan Cranston, Anna Gunn, Aaron Paul, Dean Norris, Betsy Brandt, R. J. Mitte, Steven Michael Quezada
Описание: Уолтер Уайт - преподаватель химии в университе. У него беременная жена и сын-инвалид. Уолт вынужден подрабатывать на автомойке, где его же студенты над ним насмехаются.
Его свояк, сотрудник Управления по борьбе с наркотиками, как-то предлагает поучаствовать в облаве на дом, где находится лаборатория по приготовлению метамфетамина. Во время облавы Уолт случайно замечает, как один дилер сбегает от облавы. Им оказывается его бывший студент.
Уолт решает заняться с ним бизнесом про приготовлению метамфетамина, так как он на изломе, ему нечего терять: он бросил работу на автомойке, секс с женой ограничивается только рукоблудием с ее стороны, ему поставили диагноз — неоперабельный рак легких, да и свояк постоянно говорит, что метамфетамин приносит огромные деньги. Кто еще может приготовить чистейший метамфетамин, как не учитель химии?
Уолт и его напарник снимают трейлер и организуют там лабораторию, уехав перед тем в пустыню, подальше от глаз. Первая партия готова, напарник Уолта, Джесси, идет ее реализовывать…
Ссылка на предыдущие и альтернативные раздачи: http://rutracker.org/forum/tracker.php?&f%5B%5D=189&s=2&o=1&tm=-1...m=Breaking%20Bad
Сэмпл: http://onemove.ru/41557/
Качество: DVD9
Формат: DVD-Video
Видео кодек: MPEG2
Аудио кодек: AC3
Видео: NTSC, 16:9, 720*480
Аудио: Русский, AC3, 48.0 kHz, 2 ch, 192 kbps
Аудио 2: Английский, AC3, 48.0 kHz, 2 ch, 192 kbps

MI

General
Complete name : J:\Vo vse tyajkie\Season 1\VIDEO_TS\VIDEO_TS.BUP
Format : DVD Video
Format profile : Menu
File size : 10.0 KiB
Video
ID : 224 (0xE0)
Format : MPEG Video
Format version : Version 1
Bit rate mode : Variable
Width : 720 pixels
Height : 480 pixels
Display aspect ratio : 4:3
Frame rate : 29.970 fps
Standard : NTSC
Compression mode : Lossy
General
Complete name : J:\Vo vse tyajkie\Season 1\VIDEO_TS\VIDEO_TS.IFO
Format : DVD Video
Format profile : Menu
File size : 10.0 KiB
Video
ID : 224 (0xE0)
Format : MPEG Video
Format version : Version 1
Bit rate mode : Variable
Width : 720 pixels
Height : 480 pixels
Display aspect ratio : 4:3
Frame rate : 29.970 fps
Standard : NTSC
Compression mode : Lossy
General
Complete name : J:\Vo vse tyajkie\Season 1\VIDEO_TS\VTS_01_0.BUP
Format : DVD Video
Format profile : Program
File size : 12.0 KiB
Duration : 34s 0ms
Overall bit rate : 2 891 bps
Video
ID : 224 (0xE0)
Format : MPEG Video
Format version : Version 2
Duration : 34s 1ms
Bit rate mode : Variable
Width : 720 pixels
Height : 480 pixels
Display aspect ratio : 4:3
Frame rate : 29.970 fps
Standard : NTSC
Compression mode : Lossy
Audio
ID : 128 (0x80)
Format : AC-3
Format/Info : Audio Coding 3
Duration : 34s 0ms
Channel(s) : 2 channels
Sampling rate : 48.0 KHz
Compression mode : Lossy
Language : Russian
Menu
Duration : 34s 0ms
00:00:00.000 : Chapter 1
List (Audio) : 0
General
Complete name : J:\Vo vse tyajkie\Season 1\VIDEO_TS\VTS_01_0.IFO
Format : DVD Video
Format profile : Program
File size : 12.0 KiB
Duration : 34s 0ms
Overall bit rate : 2 891 bps
Video
ID : 224 (0xE0)
Format : MPEG Video
Format version : Version 2
Duration : 34s 1ms
Bit rate mode : Variable
Width : 720 pixels
Height : 480 pixels
Display aspect ratio : 4:3
Frame rate : 29.970 fps
Standard : NTSC
Compression mode : Lossy
Audio
ID : 128 (0x80)
Format : AC-3
Format/Info : Audio Coding 3
Duration : 34s 0ms
Channel(s) : 2 channels
Sampling rate : 48.0 KHz
Compression mode : Lossy
Language : Russian
Menu
Duration : 34s 0ms
00:00:00.000 : Chapter 1
List (Audio) : 0
General
Complete name : J:\Vo vse tyajkie\Season 1\VIDEO_TS\VTS_01_1.VOB
Format : MPEG-PS
File size : 25.5 MiB
Duration : 34s 48ms
Overall bit rate : 6 276 Kbps
Writing library : encoded by TMPGEnc 4.0 XPress Version. 4.7.4.299
Video
ID : 224 (0xE0)
Format : MPEG Video
Format version : Version 2
Format profile : [email protected]
Format settings, BVOP : Yes
Format settings, Matrix : Default
Format settings, GOP : M=3, N=16
Duration : 34s 34ms
Bit rate mode : Variable
Bit rate : 5 959 Kbps
Nominal bit rate : 9 200 Kbps
Width : 720 pixels
Height : 480 pixels
Display aspect ratio : 4:3
Frame rate : 29.970 fps
Standard : NTSC
Color space : YUV
Chroma subsampling : 4:2:0
Bit depth : 8 bits
Scan type : Interlaced
Scan order : Top Field First
Compression mode : Lossy
Bits/(Pixel*Frame) : 0.575
Stream size : 24.2 MiB (95%)
Writing library : TMPGEnc XPress 4.7.4.299
Audio
ID : 128 (0x80)
Format : AC-3
Format/Info : Audio Coding 3
Mode extension : CM (complete main)
Duration : 34s 48ms
Bit rate mode : Constant
Bit rate : 192 Kbps
Channel(s) : 2 channels
Channel positions : Front: L R
Sampling rate : 48.0 KHz
Bit depth : 16 bits
Compression mode : Lossy
Stream size : 798 KiB (3%)
Menu
General
Complete name : J:\Vo vse tyajkie\Season 1\VIDEO_TS\VTS_02_0.BUP
Format : DVD Video
Format profile : Program
File size : 12.0 KiB
Duration : 37s 533ms
Overall bit rate : 2 619 bps
Video
ID : 224 (0xE0)
Format : MPEG Video
Format version : Version 2
Duration : 37s 538ms
Bit rate mode : Variable
Width : 720 pixels
Height : 480 pixels
Display aspect ratio : 16:9
Frame rate : 29.970 fps
Standard : NTSC
Compression mode : Lossy
Audio
ID : 128 (0x80)
Format : AC-3
Format/Info : Audio Coding 3
Duration : 37s 533ms
Channel(s) : 2 channels
Sampling rate : 48.0 KHz
Compression mode : Lossy
Language : Russian
Menu
Duration : 37s 533ms
00:00:00.000 : Chapter 1
List (Audio) : 0
General
Complete name : J:\Vo vse tyajkie\Season 1\VIDEO_TS\VTS_02_0.IFO
Format : DVD Video
Format profile : Program
File size : 12.0 KiB
Duration : 37s 533ms
Overall bit rate : 2 619 bps
Video
ID : 224 (0xE0)
Format : MPEG Video
Format version : Version 2
Duration : 37s 538ms
Bit rate mode : Variable
Width : 720 pixels
Height : 480 pixels
Display aspect ratio : 16:9
Frame rate : 29.970 fps
Standard : NTSC
Compression mode : Lossy
Audio
ID : 128 (0x80)
Format : AC-3
Format/Info : Audio Coding 3
Duration : 37s 533ms
Channel(s) : 2 channels
Sampling rate : 48.0 KHz
Compression mode : Lossy
Language : Russian
Menu
Duration : 37s 533ms
00:00:00.000 : Chapter 1
List (Audio) : 0
General
Complete name : J:\Vo vse tyajkie\Season 1\VIDEO_TS\VTS_02_1.VOB
Format : MPEG-PS
File size : 19.2 MiB
Duration : 37s 600ms
Overall bit rate : 4 286 Kbps
Video
ID : 224 (0xE0)
Format : MPEG Video
Format version : Version 2
Format profile : [email protected]
Format settings, BVOP : Yes
Format settings, Matrix : Default
Format settings, GOP : M=3, N=15
Duration : 37s 571ms
Bit rate mode : Constant
Bit rate : 4 000 Kbps
Width : 720 pixels
Height : 480 pixels
Display aspect ratio : 16:9
Frame rate : 29.970 fps
Standard : NTSC
Color space : YUV
Chroma subsampling : 4:2:0
Bit depth : 8 bits
Scan type : Interlaced
Scan order : Bottom Field First
Compression mode : Lossy
Bits/(Pixel*Frame) : 0.386
Stream size : 18.0 MiB (93%)
Audio
ID : 128 (0x80)
Format : AC-3
Format/Info : Audio Coding 3
Mode extension : CM (complete main)
Duration : 37s 600ms
Bit rate mode : Constant
Bit rate : 192 Kbps
Channel(s) : 2 channels
Channel positions : Front: L R
Sampling rate : 48.0 KHz
Bit depth : 16 bits
Compression mode : Lossy
Stream size : 881 KiB (4%)
Menu
General
Complete name : J:\Vo vse tyajkie\Season 1\VIDEO_TS\VTS_03_0.BUP
Format : DVD Video
Format profile : Program
File size : 224 KiB
Duration : 5h 45mn
Overall bit rate : 88 bps
Video
ID : 224 (0xE0)
Format : MPEG Video
Format version : Version 2
Duration : 5h 45mn
Bit rate mode : Variable
Width : 720 pixels
Height : 480 pixels
Display aspect ratio : 16:9
Frame rate : 29.970 fps
Standard : NTSC
Compression mode : Lossy
Audio #1
ID : 128 (0x80)
Format : AC-3
Format/Info : Audio Coding 3
Duration : 5h 45mn
Channel(s) : 2 channels
Sampling rate : 48.0 KHz
Compression mode : Lossy
Language : Russian
Audio #2
ID : 129 (0x81)
Format : AC-3
Format/Info : Audio Coding 3
Duration : 5h 45mn
Channel(s) : 2 channels
Sampling rate : 48.0 KHz
Compression mode : Lossy
Language : English
Menu #1
Duration : 5h 45mn
00:00:00.000 : Chapter 1
00:00:03.000 : Chapter 2
00:05:02.733 : Chapter 3
00:10:02.999 : Chapter 4
00:15:02.732 : Chapter 5
00:20:02.998 : Chapter 6
00:25:02.731 : Chapter 7
00:30:02.997 : Chapter 8
00:35:02.730 : Chapter 9
00:40:02.996 : Chapter 10
00:45:02.729 : Chapter 11
00:50:02.995 : Chapter 12
00:55:02.728 : Chapter 13
00:57:58.728 : Chapter 14
00:57:59.328 : Chapter 15
00:58:02.328 : Chapter 16
01:03:02.061 : Chapter 17
01:08:02.327 : Chapter 18
01:13:02.060 : Chapter 19
01:18:02.326 : Chapter 20
01:23:02.059 : Chapter 21
01:28:02.325 : Chapter 22
01:33:02.058 : Chapter 23
01:38:02.324 : Chapter 24
01:43:02.057 : Chapter 25
01:46:04.457 : Chapter 26
01:46:05.190 : Chapter 27
01:46:08.190 : Chapter 28
01:51:07.923 : Chapter 29
01:56:08.189 : Chapter 30
02:01:07.922 : Chapter 31
02:06:08.188 : Chapter 32
02:11:07.921 : Chapter 33
02:16:08.187 : Chapter 34
02:21:07.920 : Chapter 35
02:26:08.186 : Chapter 36
02:31:07.919 : Chapter 37
02:34:09.785 : Chapter 38
02:34:10.218 : Chapter 39
02:34:13.218 : Chapter 40
02:39:12.951 : Chapter 41
02:44:13.217 : Chapter 42
02:49:12.950 : Chapter 43
02:54:13.216 : Chapter 44
02:59:12.949 : Chapter 45
03:04:13.215 : Chapter 46
03:09:12.948 : Chapter 47
03:14:13.214 : Chapter 48
03:19:12.947 : Chapter 49
03:22:18.547 : Chapter 50
03:22:18.947 : Chapter 51
03:22:21.947 : Chapter 52
03:27:21.680 : Chapter 53
03:32:21.946 : Chapter 54
03:37:21.679 : Chapter 55
03:42:21.945 : Chapter 56
03:47:21.678 : Chapter 57
03:52:21.944 : Chapter 58
03:57:21.677 : Chapter 59
04:02:21.943 : Chapter 60
04:07:21.676 : Chapter 61
04:10:23.009 : Chapter 62
04:10:23.709 : Chapter 63
04:10:26.709 : Chapter 64
04:15:26.442 : Chapter 65
04:20:26.708 : Chapter 66
04:25:26.441 : Chapter 67
04:30:26.707 : Chapter 68
04:35:26.440 : Chapter 69
04:40:26.706 : Chapter 70
04:45:26.439 : Chapter 71
04:50:26.705 : Chapter 72
04:55:26.438 : Chapter 73
04:58:21.371 : Chapter 74
04:58:21.937 : Chapter 75
04:58:24.937 : Chapter 76
05:03:24.670 : Chapter 77
05:08:24.936 : Chapter 78
05:13:24.669 : Chapter 79
05:18:24.935 : Chapter 80
05:23:24.668 : Chapter 81
05:28:24.934 : Chapter 82
05:33:24.667 : Chapter 83
05:38:24.933 : Chapter 84
05:43:24.666 : Chapter 85
05:45:57.199 : Chapter 86
List (Audio) : 0 / 1
Menu #2
Duration : 57mn 59s
00:00:00.000 : Chapter 1
00:00:03.000 : Chapter 2
00:05:02.733 : Chapter 3
00:10:02.999 : Chapter 4
00:15:02.732 : Chapter 5
00:20:02.998 : Chapter 6
00:25:02.731 : Chapter 7
00:30:02.997 : Chapter 8
00:35:02.730 : Chapter 9
00:40:02.996 : Chapter 10
00:45:02.729 : Chapter 11
00:50:02.995 : Chapter 12
00:55:02.728 : Chapter 13
00:57:58.728 : Chapter 14
List (Audio) : 0 / 1
Menu #3
Duration : 48mn 5s
00:00:00.000 : Chapter 1
00:00:03.000 : Chapter 2
00:05:02.733 : Chapter 3
00:10:02.999 : Chapter 4
00:15:02.732 : Chapter 5
00:20:02.998 : Chapter 6
00:25:02.731 : Chapter 7
00:30:02.997 : Chapter 8
00:35:02.730 : Chapter 9
00:40:02.996 : Chapter 10
00:45:02.729 : Chapter 11
00:48:05.129 : Chapter 12
List (Audio) : 0 / 1
Menu #4
Duration : 48mn 5s
00:00:00.000 : Chapter 1
00:00:03.000 : Chapter 2
00:05:02.733 : Chapter 3
00:10:02.999 : Chapter 4
00:15:02.732 : Chapter 5
00:20:02.998 : Chapter 6
00:25:02.731 : Chapter 7
00:30:02.997 : Chapter 8
00:35:02.730 : Chapter 9
00:40:02.996 : Chapter 10
00:45:02.729 : Chapter 11
00:48:04.595 : Chapter 12
List (Audio) : 0 / 1
Menu #5
Duration : 48mn 8s
00:00:00.000 : Chapter 1
00:00:03.000 : Chapter 2
00:05:02.733 : Chapter 3
00:10:02.999 : Chapter 4
00:15:02.732 : Chapter 5
00:20:02.998 : Chapter 6
00:25:02.731 : Chapter 7
00:30:02.997 : Chapter 8
00:35:02.730 : Chapter 9
00:40:02.996 : Chapter 10
00:45:02.729 : Chapter 11
00:48:08.329 : Chapter 12
List (Audio) : 0 / 1
Menu #6
Duration : 48mn 4s
00:00:00.000 : Chapter 1
00:00:03.000 : Chapter 2
00:05:02.733 : Chapter 3
00:10:02.999 : Chapter 4
00:15:02.732 : Chapter 5
00:20:02.998 : Chapter 6
00:25:02.731 : Chapter 7
00:30:02.997 : Chapter 8
00:35:02.730 : Chapter 9
00:40:02.996 : Chapter 10
00:45:02.729 : Chapter 11
00:48:04.062 : Chapter 12
List (Audio) : 0 / 1
Menu #7
Duration : 47mn 58s
00:00:00.000 : Chapter 1
00:00:03.000 : Chapter 2
00:05:02.733 : Chapter 3
00:10:02.999 : Chapter 4
00:15:02.732 : Chapter 5
00:20:02.998 : Chapter 6
00:25:02.731 : Chapter 7
00:30:02.997 : Chapter 8
00:35:02.730 : Chapter 9
00:40:02.996 : Chapter 10
00:45:02.729 : Chapter 11
00:47:57.662 : Chapter 12
List (Audio) : 0 / 1
Menu #8
Duration : 47mn 35s
00:00:00.000 : Chapter 1
00:00:03.000 : Chapter 2
00:05:02.733 : Chapter 3
00:10:02.999 : Chapter 4
00:15:02.732 : Chapter 5
00:20:02.998 : Chapter 6
00:25:02.731 : Chapter 7
00:30:02.997 : Chapter 8
00:35:02.730 : Chapter 9
00:40:02.996 : Chapter 10
00:45:02.729 : Chapter 11
00:47:35.262 : Chapter 12
List (Audio) : 0 / 1
General
Complete name : J:\Vo vse tyajkie\Season 1\VIDEO_TS\VTS_03_0.IFO
Format : DVD Video
Format profile : Program
File size : 224 KiB
Duration : 5h 45mn
Overall bit rate : 88 bps
Video
ID : 224 (0xE0)
Format : MPEG Video
Format version : Version 2
Duration : 5h 45mn
Bit rate mode : Variable
Width : 720 pixels
Height : 480 pixels
Display aspect ratio : 16:9
Frame rate : 29.970 fps
Standard : NTSC
Compression mode : Lossy
Audio #1
ID : 128 (0x80)
Format : AC-3
Format/Info : Audio Coding 3
Duration : 5h 45mn
Channel(s) : 2 channels
Sampling rate : 48.0 KHz
Compression mode : Lossy
Language : Russian
Audio #2
ID : 129 (0x81)
Format : AC-3
Format/Info : Audio Coding 3
Duration : 5h 45mn
Channel(s) : 2 channels
Sampling rate : 48.0 KHz
Compression mode : Lossy
Language : English
Menu #1
Duration : 5h 45mn
00:00:00.000 : Chapter 1
00:00:03.000 : Chapter 2
00:05:02.733 : Chapter 3
00:10:02.999 : Chapter 4
00:15:02.732 : Chapter 5
00:20:02.998 : Chapter 6
00:25:02.731 : Chapter 7
00:30:02.997 : Chapter 8
00:35:02.730 : Chapter 9
00:40:02.996 : Chapter 10
00:45:02.729 : Chapter 11
00:50:02.995 : Chapter 12
00:55:02.728 : Chapter 13
00:57:58.728 : Chapter 14
00:57:59.328 : Chapter 15
00:58:02.328 : Chapter 16
01:03:02.061 : Chapter 17
01:08:02.327 : Chapter 18
01:13:02.060 : Chapter 19
01:18:02.326 : Chapter 20
01:23:02.059 : Chapter 21
01:28:02.325 : Chapter 22
01:33:02.058 : Chapter 23
01:38:02.324 : Chapter 24
01:43:02.057 : Chapter 25
01:46:04.457 : Chapter 26
01:46:05.190 : Chapter 27
01:46:08.190 : Chapter 28
01:51:07.923 : Chapter 29
01:56:08.189 : Chapter 30
02:01:07.922 : Chapter 31
02:06:08.188 : Chapter 32
02:11:07.921 : Chapter 33
02:16:08.187 : Chapter 34
02:21:07.920 : Chapter 35
02:26:08.186 : Chapter 36
02:31:07.919 : Chapter 37
02:34:09.785 : Chapter 38
02:34:10.218 : Chapter 39
02:34:13.218 : Chapter 40
02:39:12.951 : Chapter 41
02:44:13.217 : Chapter 42
02:49:12.950 : Chapter 43
02:54:13.216 : Chapter 44
02:59:12.949 : Chapter 45
03:04:13.215 : Chapter 46
03:09:12.948 : Chapter 47
03:14:13.214 : Chapter 48
03:19:12.947 : Chapter 49
03:22:18.547 : Chapter 50
03:22:18.947 : Chapter 51
03:22:21.947 : Chapter 52
03:27:21.680 : Chapter 53
03:32:21.946 : Chapter 54
03:37:21.679 : Chapter 55
03:42:21.945 : Chapter 56
03:47:21.678 : Chapter 57
03:52:21.944 : Chapter 58
03:57:21.677 : Chapter 59
04:02:21.943 : Chapter 60
04:07:21.676 : Chapter 61
04:10:23.009 : Chapter 62
04:10:23.709 : Chapter 63
04:10:26.709 : Chapter 64
04:15:26.442 : Chapter 65
04:20:26.708 : Chapter 66
04:25:26.441 : Chapter 67
04:30:26.707 : Chapter 68
04:35:26.440 : Chapter 69
04:40:26.706 : Chapter 70
04:45:26.439 : Chapter 71
04:50:26.705 : Chapter 72
04:55:26.438 : Chapter 73
04:58:21.371 : Chapter 74
04:58:21.937 : Chapter 75
04:58:24.937 : Chapter 76
05:03:24.670 : Chapter 77
05:08:24.936 : Chapter 78
05:13:24.669 : Chapter 79
05:18:24.935 : Chapter 80
05:23:24.668 : Chapter 81
05:28:24.934 : Chapter 82
05:33:24.667 : Chapter 83
05:38:24.933 : Chapter 84
05:43:24.666 : Chapter 85
05:45:57.199 : Chapter 86
List (Audio) : 0 / 1
Menu #2
Duration : 57mn 59s
00:00:00.000 : Chapter 1
00:00:03.000 : Chapter 2
00:05:02.733 : Chapter 3
00:10:02.999 : Chapter 4
00:15:02.732 : Chapter 5
00:20:02.998 : Chapter 6
00:25:02.731 : Chapter 7
00:30:02.997 : Chapter 8
00:35:02.730 : Chapter 9
00:40:02.996 : Chapter 10
00:45:02.729 : Chapter 11
00:50:02.995 : Chapter 12
00:55:02.728 : Chapter 13
00:57:58.728 : Chapter 14
List (Audio) : 0 / 1
Menu #3
Duration : 48mn 5s
00:00:00.000 : Chapter 1
00:00:03.000 : Chapter 2
00:05:02.733 : Chapter 3
00:10:02.999 : Chapter 4
00:15:02.732 : Chapter 5
00:20:02.998 : Chapter 6
00:25:02.731 : Chapter 7
00:30:02.997 : Chapter 8
00:35:02.730 : Chapter 9
00:40:02.996 : Chapter 10
00:45:02.729 : Chapter 11
00:48:05.129 : Chapter 12
List (Audio) : 0 / 1
Menu #4
Duration : 48mn 5s
00:00:00.000 : Chapter 1
00:00:03.000 : Chapter 2
00:05:02.733 : Chapter 3
00:10:02.999 : Chapter 4
00:15:02.732 : Chapter 5
00:20:02.998 : Chapter 6
00:25:02.731 : Chapter 7
00:30:02.997 : Chapter 8
00:35:02.730 : Chapter 9
00:40:02.996 : Chapter 10
00:45:02.729 : Chapter 11
00:48:04.595 : Chapter 12
List (Audio) : 0 / 1
Menu #5
Duration : 48mn 8s
00:00:00.000 : Chapter 1
00:00:03.000 : Chapter 2
00:05:02.733 : Chapter 3
00:10:02.999 : Chapter 4
00:15:02.732 : Chapter 5
00:20:02.998 : Chapter 6
00:25:02.731 : Chapter 7
00:30:02.997 : Chapter 8
00:35:02.730 : Chapter 9
00:40:02.996 : Chapter 10
00:45:02.729 : Chapter 11
00:48:08.329 : Chapter 12
List (Audio) : 0 / 1
Menu #6
Duration : 48mn 4s
00:00:00.000 : Chapter 1
00:00:03.000 : Chapter 2
00:05:02.733 : Chapter 3
00:10:02.999 : Chapter 4
00:15:02.732 : Chapter 5
00:20:02.998 : Chapter 6
00:25:02.731 : Chapter 7
00:30:02.997 : Chapter 8
00:35:02.730 : Chapter 9
00:40:02.996 : Chapter 10
00:45:02.729 : Chapter 11
00:48:04.062 : Chapter 12
List (Audio) : 0 / 1
Menu #7
Duration : 47mn 58s
00:00:00.000 : Chapter 1
00:00:03.000 : Chapter 2
00:05:02.733 : Chapter 3
00:10:02.999 : Chapter 4
00:15:02.732 : Chapter 5
00:20:02.998 : Chapter 6
00:25:02.731 : Chapter 7
00:30:02.997 : Chapter 8
00:35:02.730 : Chapter 9
00:40:02.996 : Chapter 10
00:45:02.729 : Chapter 11
00:47:57.662 : Chapter 12
List (Audio) : 0 / 1
Menu #8
Duration : 47mn 35s
00:00:00.000 : Chapter 1
00:00:03.000 : Chapter 2
00:05:02.733 : Chapter 3
00:10:02.999 : Chapter 4
00:15:02.732 : Chapter 5
00:20:02.998 : Chapter 6
00:25:02.731 : Chapter 7
00:30:02.997 : Chapter 8
00:35:02.730 : Chapter 9
00:40:02.996 : Chapter 10
00:45:02.729 : Chapter 11
00:47:35.262 : Chapter 12
List (Audio) : 0 / 1
General
Complete name : J:\Vo vse tyajkie\Season 1\VIDEO_TS\VTS_03_0.VOB
Format : MPEG-PS
File size : 1.99 MiB
Video
ID : 224 (0xE0)
Format : MPEG Video
Format version : Version 2
Format profile : [email protected]
Format settings, BVOP : No
Format settings, Matrix : Default
Format settings, GOP : N=1
Bit rate mode : Constant
Bit rate : 8 000 Kbps
Width : 720 pixels
Height : 480 pixels
Display aspect ratio : 4:3
Frame rate : 29.970 fps
Standard : NTSC
Color space : YUV
Chroma subsampling : 4:2:0
Bit depth : 8 bits
Scan type : Progressive
Scan order : Top Field First
Compression mode : Lossy
Bits/(Pixel*Frame) : 0.772
Audio
ID : 128 (0x80)
Format : AC-3
Format/Info : Audio Coding 3
Mode extension : CM (complete main)
Bit rate mode : Constant
Bit rate : 192 Kbps
Channel(s) : 2 channels
Channel positions : Front: L R
Sampling rate : 48.0 KHz
Bit depth : 16 bits
Compression mode : Lossy
Text
ID : 32 (0x20)
Format : RLE
Format/Info : Run-length encoding
Menu
General
Complete name : J:\Vo vse tyajkie\Season 1\VIDEO_TS\VTS_03_1.VOB
Format : MPEG-PS
File size : 1 024 MiB
Duration : 44mn 36s
Overall bit rate : 3 209 Kbps
Video
ID : 224 (0xE0)
Format : MPEG Video
Format version : Version 2
Format profile : [email protected]
Format settings, BVOP : Yes
Format settings, Matrix : Default
Format settings, GOP : M=3, N=15
Duration : 44mn 36s
Bit rate mode : Variable
Bit rate : 2 761 Kbps
Nominal bit rate : 7 000 Kbps
Width : 720 pixels
Height : 480 pixels
Display aspect ratio : 16:9
Frame rate : 29.970 fps
Standard : NTSC
Color space : YUV
Chroma subsampling : 4:2:0
Bit depth : 8 bits
Scan type : Progressive
Compression mode : Lossy
Bits/(Pixel*Frame) : 0.267
Stream size : 881 MiB (86%)
Audio #1
ID : 128 (0x80)
Format : AC-3
Format/Info : Audio Coding 3
Mode extension : CM (complete main)
Duration : 44mn 36s
Bit rate mode : Constant
Bit rate : 192 Kbps
Channel(s) : 2 channels
Channel positions : Front: L R
Sampling rate : 48.0 KHz
Bit depth : 16 bits
Compression mode : Lossy
Delay relative to video : -66ms
Stream size : 61.3 MiB (6%)
Audio #2
ID : 129 (0x81)
Format : AC-3
Format/Info : Audio Coding 3
Mode extension : CM (complete main)
Duration : 44mn 36s
Bit rate mode : Constant
Bit rate : 192 Kbps
Channel(s) : 2 channels
Channel positions : Front: L R
Sampling rate : 48.0 KHz
Bit depth : 16 bits
Compression mode : Lossy
Delay relative to video : -66ms
Stream size : 61.3 MiB (6%)
Menu
General
Complete name : J:\Vo vse tyajkie\Season 1\VIDEO_TS\VTS_03_2.VOB
Format : MPEG-PS
File size : 1 024 MiB
Overall bit rate : 2 000 bps
Video
ID : 224 (0xE0)
Format : MPEG Video
Format version : Version 2
Format profile : [email protected]
Format settings, BVOP : Yes
Format settings, Matrix : Default
Format settings, GOP : M=3, N=16
Bit rate mode : Variable
Nominal bit rate : 9 200 Kbps
Width : 720 pixels
Height : 480 pixels
Display aspect ratio : 16:9
Frame rate : 29.970 fps
Standard : NTSC
Color space : YUV
Chroma subsampling : 4:2:0
Bit depth : 8 bits
Scan type : Progressive
Compression mode : Lossy
Bits/(Pixel*Frame) : 0.888
Audio #1
ID : 128 (0x80)
Format : AC-3
Format/Info : Audio Coding 3
Mode extension : CM (complete main)
Bit rate mode : Constant
Bit rate : 192 Kbps
Channel(s) : 2 channels
Channel positions : Front: L R
Sampling rate : 48.0 KHz
Bit depth : 16 bits
Compression mode : Lossy
Delay relative to video : -145ms
Stream size : 96.0 GiB
Audio #2
ID : 129 (0x81)
Format : AC-3
Format/Info : Audio Coding 3
Mode extension : CM (complete main)
Bit rate mode : Constant
Bit rate : 192 Kbps
Channel(s) : 2 channels
Channel positions : Front: L R
Sampling rate : 48.0 KHz
Bit depth : 16 bits
Compression mode : Lossy
Delay relative to video : -145ms
Stream size : 96.0 GiB
Menu
General
Complete name : J:\Vo vse tyajkie\Season 1\VIDEO_TS\VTS_03_3.VOB
Format : MPEG-PS
File size : 1 024 MiB
Overall bit rate : 1 999 bps
Video
ID : 224 (0xE0)
Format : MPEG Video
Format version : Version 2
Format profile : [email protected]
Format settings, BVOP : Yes
Format settings, Matrix : Default
Format settings, GOP : M=3, N=16
Bit rate mode : Variable
Nominal bit rate : 9 200 Kbps
Width : 720 pixels
Height : 480 pixels
Display aspect ratio : 16:9
Frame rate : 29.970 fps
Standard : NTSC
Color space : YUV
Chroma subsampling : 4:2:0
Bit depth : 8 bits
Scan type : Progressive
Compression mode : Lossy
Bits/(Pixel*Frame) : 0.888
Audio #1
ID : 128 (0x80)
Format : AC-3
Format/Info : Audio Coding 3
Mode extension : CM (complete main)
Bit rate mode : Constant
Bit rate : 192 Kbps
Channel(s) : 2 channels
Channel positions : Front: L R
Sampling rate : 48.0 KHz
Bit depth : 16 bits
Compression mode : Lossy
Delay relative to video : -93ms
Stream size : 96.0 GiB
Audio #2
ID : 129 (0x81)
Format : AC-3
Format/Info : Audio Coding 3
Mode extension : CM (complete main)
Bit rate mode : Constant
Bit rate : 192 Kbps
Channel(s) : 2 channels
Channel positions : Front: L R
Sampling rate : 48.0 KHz
Bit depth : 16 bits
Compression mode : Lossy
Delay relative to video : -93ms
Stream size : 96.0 GiB
Menu
General
Complete name : J:\Vo vse tyajkie\Season 1\VIDEO_TS\VTS_03_4.VOB
Format : MPEG-PS
File size : 1 024 MiB
Overall bit rate : 1 999 bps
Video
ID : 224 (0xE0)
Format : MPEG Video
Format version : Version 2
Format profile : [email protected]
Format settings, BVOP : Yes
Format settings, Matrix : Default
Format settings, GOP : M=3, N=16
Bit rate mode : Variable
Nominal bit rate : 9 200 Kbps
Width : 720 pixels
Height : 480 pixels
Display aspect ratio : 16:9
Frame rate : 29.970 fps
Standard : NTSC
Color space : YUV
Chroma subsampling : 4:2:0
Bit depth : 8 bits
Scan type : Progressive
Compression mode : Lossy
Bits/(Pixel*Frame) : 0.888
Audio #1
ID : 128 (0x80)
Format : AC-3
Format/Info : Audio Coding 3
Mode extension : CM (complete main)
Bit rate mode : Constant
Bit rate : 192 Kbps
Channel(s) : 2 channels
Channel positions : Front: L R
Sampling rate : 48.0 KHz
Bit depth : 16 bits
Compression mode : Lossy
Delay relative to video : -154ms
Stream size : 96.0 GiB
Audio #2
ID : 129 (0x81)
Format : AC-3
Format/Info : Audio Coding 3
Mode extension : CM (complete main)
Bit rate mode : Constant
Bit rate : 192 Kbps
Channel(s) : 2 channels
Channel positions : Front: L R
Sampling rate : 48.0 KHz
Bit depth : 16 bits
Compression mode : Lossy
Delay relative to video : -154ms
Stream size : 96.0 GiB
Menu
General
Complete name : J:\Vo vse tyajkie\Season 1\VIDEO_TS\VTS_03_5.VOB
Format : MPEG-PS
File size : 1 024 MiB
Overall bit rate : 2 000 bps
Video
ID : 224 (0xE0)
Format : MPEG Video
Format version : Version 2
Format profile : [email protected]
Format settings, BVOP : Yes
Format settings, Matrix : Default
Format settings, GOP : M=3, N=16
Bit rate mode : Variable
Nominal bit rate : 9 200 Kbps
Width : 720 pixels
Height : 480 pixels
Display aspect ratio : 16:9
Frame rate : 29.970 fps
Standard : NTSC
Color space : YUV
Chroma subsampling : 4:2:0
Bit depth : 8 bits
Scan type : Progressive
Compression mode : Lossy
Bits/(Pixel*Frame) : 0.888
Audio #1
ID : 128 (0x80)
Format : AC-3
Format/Info : Audio Coding 3
Mode extension : CM (complete main)
Bit rate mode : Constant
Bit rate : 192 Kbps
Channel(s) : 2 channels
Channel positions : Front: L R
Sampling rate : 48.0 KHz
Bit depth : 16 bits
Compression mode : Lossy
Delay relative to video : -95ms
Stream size : 96.0 GiB
Audio #2
ID : 129 (0x81)
Format : AC-3
Format/Info : Audio Coding 3
Mode extension : CM (complete main)
Bit rate mode : Constant
Bit rate : 192 Kbps
Channel(s) : 2 channels
Channel positions : Front: L R
Sampling rate : 48.0 KHz
Bit depth : 16 bits
Compression mode : Lossy
Delay relative to video : -95ms
Stream size : 96.0 GiB
Menu
General
Complete name : J:\Vo vse tyajkie\Season 1\VIDEO_TS\VTS_03_6.VOB
Format : MPEG-PS
File size : 1 024 MiB
Overall bit rate : 1 999 bps
Video
ID : 224 (0xE0)
Format : MPEG Video
Format version : Version 2
Format profile : [email protected]
Format settings, BVOP : Yes
Format settings, Matrix : Default
Format settings, GOP : M=3, N=16
Bit rate mode : Variable
Nominal bit rate : 9 200 Kbps
Width : 720 pixels
Height : 480 pixels
Display aspect ratio : 16:9
Frame rate : 29.970 fps
Standard : NTSC
Color space : YUV
Chroma subsampling : 4:2:0
Bit depth : 8 bits
Scan type : Progressive
Compression mode : Lossy
Bits/(Pixel*Frame) : 0.888
Audio #1
ID : 128 (0x80)
Format : AC-3
Format/Info : Audio Coding 3
Mode extension : CM (complete main)
Bit rate mode : Constant
Bit rate : 192 Kbps
Channel(s) : 2 channels
Channel positions : Front: L R
Sampling rate : 48.0 KHz
Bit depth : 16 bits
Compression mode : Lossy
Delay relative to video : -111ms
Stream size : 96.0 GiB
Audio #2
ID : 129 (0x81)
Format : AC-3
Format/Info : Audio Coding 3
Mode extension : CM (complete main)
Bit rate mode : Constant
Bit rate : 192 Kbps
Channel(s) : 2 channels
Channel positions : Front: L R
Sampling rate : 48.0 KHz
Bit depth : 16 bits
Compression mode : Lossy
Delay relative to video : -111ms
Stream size : 96.0 GiB
Menu
General
Complete name : J:\Vo vse tyajkie\Season 1\VIDEO_TS\VTS_03_7.VOB
Format : MPEG-PS
File size : 1 024 MiB
Overall bit rate : 1 999 bps
Video
ID : 224 (0xE0)
Format : MPEG Video
Format version : Version 2
Format profile : [email protected]
Format settings, BVOP : Yes
Format settings, Matrix : Default
Format settings, GOP : M=3, N=16
Bit rate mode : Variable
Nominal bit rate : 9 200 Kbps
Width : 720 pixels
Height : 480 pixels
Display aspect ratio : 16:9
Frame rate : 29.970 fps
Standard : NTSC
Color space : YUV
Chroma subsampling : 4:2:0
Bit depth : 8 bits
Scan type : Progressive
Compression mode : Lossy
Bits/(Pixel*Frame) : 0.888
Audio #1
ID : 128 (0x80)
Format : AC-3
Format/Info : Audio Coding 3
Mode extension : CM (complete main)
Bit rate mode : Constant
Bit rate : 192 Kbps
Channel(s) : 2 channels
Channel positions : Front: L R
Sampling rate : 48.0 KHz
Bit depth : 16 bits
Compression mode : Lossy
Delay relative to video : -94ms
Stream size : 96.0 GiB
Audio #2
ID : 129 (0x81)
Format : AC-3
Format/Info : Audio Coding 3
Mode extension : CM (complete main)
Bit rate mode : Constant
Bit rate : 192 Kbps
Channel(s) : 2 channels
Channel positions : Front: L R
Sampling rate : 48.0 KHz
Bit depth : 16 bits
Compression mode : Lossy
Delay relative to video : -94ms
Stream size : 96.0 GiB
Menu
General
Complete name : J:\Vo vse tyajkie\Season 1\VIDEO_TS\VTS_03_8.VOB
Format : MPEG-PS
File size : 841 MiB
Duration : 35mn 50s
Overall bit rate : 3 279 Kbps
Video
ID : 224 (0xE0)
Format : MPEG Video
Format version : Version 2
Format profile : [email protected]
Format settings, BVOP : Yes
Format settings, Matrix : Default
Format settings, GOP : M=3, N=16
Duration : 35mn 50s
Bit rate mode : Variable
Bit rate : 2 829 Kbps
Nominal bit rate : 9 200 Kbps
Width : 720 pixels
Height : 480 pixels
Display aspect ratio : 16:9
Frame rate : 29.970 fps
Standard : NTSC
Color space : YUV
Chroma subsampling : 4:2:0
Bit depth : 8 bits
Scan type : Progressive
Compression mode : Lossy
Bits/(Pixel*Frame) : 0.273
Stream size : 725 MiB (86%)
Audio #1
ID : 128 (0x80)
Format : AC-3
Format/Info : Audio Coding 3
Mode extension : CM (complete main)
Duration : 35mn 50s
Bit rate mode : Constant
Bit rate : 192 Kbps
Channel(s) : 2 channels
Channel positions : Front: L R
Sampling rate : 48.0 KHz
Bit depth : 16 bits
Compression mode : Lossy
Delay relative to video : -128ms
Stream size : 49.2 MiB (6%)
Audio #2
ID : 129 (0x81)
Format : AC-3
Format/Info : Audio Coding 3
Mode extension : CM (complete main)
Duration : 35mn 50s
Bit rate mode : Constant
Bit rate : 192 Kbps
Channel(s) : 2 channels
Channel positions : Front: L R
Sampling rate : 48.0 KHz
Bit depth : 16 bits
Compression mode : Lossy
Delay relative to video : -128ms
Stream size : 49.2 MiB (6%)
Menu

Скриншоты

Примечание о 2-м сезоне

Совмещённой раздаче с DVD 2-го сезона не подлежит, т.к. последние записаны в PAL.
Вы не можете начинать темы
Вы не можете отвечать на сообщения
Вы не можете редактировать свои сообщения
Вы не можете удалять свои сообщения
Вы не можете голосовать в опросах
Вы не можете прикреплять файлы к сообщениям
Вы можете скачивать файлы
!ВНИМАНИЕ!

Сайт не предоставляет электронные версии произведений, а занимается лишь коллекционированием и каталогизацией ссылок, присылаемых и публикуемых на форуме нашими читателями. Если вы являетесь правообладателем какого-либо представленного материала и не желаете, чтобы ссылка на него находилась в нашем каталоге, свяжитесь с нами, и мы незамедлительно удалим ее. Файлы для обмена на трекере предоставлены пользователями сайта, и администрация не несет ответственности за их содержание. Просьба не заливать файлы, защищенные авторскими правами, а также файлы нелегального содержания!

Искали программы, игры, дополнения, музыка mp3, аниме, аудио книги, журналы? Добро пожаловать на свободный торрент трекер Torrents, у нас можно скачать бесплатно, без смс и регистрации и прочих ограничений лучшие, отборные сборки программ, игр. Скачать торрентом не составит труда даже не опытному пользователю. Раздачи ежедневно обновляются, только лучшие и качественные раздачи, подробные описания и скриншоты. Огромная коллекция программ для работы со звуком, графикой, дизайном, а так же множество плагинов и инструментов к ним с подробной инструкцией и рекомендациями. Прошивки для навигаторов, карты. Разнообразные игры, для Windows, Linux. В коллекцие есть и старые игры любых жанров, Rpg, Action, Shooter, strategy Множество дополнений, модификаций, сценариев для популярных игр в жанре экш, рпг, гонки, стратегии, логические игры. Множество аддонов и сценариев для Microsoft Flight Simulator Большая коллекция книг, учебников. Если нет возможности купить печатное издание - смело скачивайте цифровую версию книги или, быть может, журнала. Не любите читать - можно загрузить бесплатно аудикнигу. Для веб дизайнеров и программистов так же найдется множество специализированного софта, таких как: редакторы с подсветкой, среды программирования, компоненты, системы управления базами данных, разнообразные скрипты и шаблоны. Не так давно у нас появился материал для автолюбителей и владельцев мото - оригинальные и неоригинальные каталоги запчастей, книги и журналы по ремонту и обслуживанию, видеоуроки, статьи по чип тюнингу, прошивкам. Процедура получения контента элементарная, достаточно просто скачать торрент файл и добавить его в загрузку в вашем торрент клиенте. Если у вас нет специального торрент клиента, вы можете его скачать у нас.