Во все тяжкие / Breaking Bad / Сезон 1 / Серии 1-7 из 7 (Винс Гиллиган) [2008, США, Криминальная драма, BDRip] AVO (Ю. Сербин) +Original 

Цитировать
Во все тяжкие - Первый сезон
Breaking Bad- Год выпуска: 2008
Страна: США
Жанр: Криминальная драма
Продолжительность: ~ 00:50:00
Перевод: Авторский одноголосый (Ю.Сербин)
Субтитры: нет-Режиссёр: Винс Гиллиган
В ролях: Брайан Кренстон, Анна Ганн, АрДжи Митт, Арон Пол, Бетси Брендт, Дин Норрис и другие.-Описание: Уолтер Уайт — преподаватель химии в школе. У него есть жена и сын-инвалид, жена ждет еще одного ребенка. Уолт уже не молод, и в этом возрасте часто бывают кризисы, тем более нужно кормить семью, а на зарплату преподавателя не разгуляешься, поэтому он вынужден подрабатывать на автомойке, где его же студенты над ним насмехаются, а еще сын, чью инвалидность тоже постоянно осмеивают. Его свояк работает в Управлении по борьбе с наркотиками и однажды предлагает поучаствовать в облаве на дом, где находится лаборатория по приготовлению метамфентамина. Во время облавы Уолт случайно видит, как один дилер сбегает от облавы, им оказывается его бывший студент. Уолт решает заняться с ним бизнесом по приготовлению метамфетамина, так как он на изломе, что ему терять: он бросил работу на автомойке, секс с женой ограничивается только рукоблудием с ее стороны, ему поставили диагноз — неоперабельный рак легких, да и свояк постоянно говорит, что метамфетамин приносит огромные деньги. Кто еще может приготовить чистейший метамфетамин, как не учитель химии? Уолт и его напарник снимают трейлер и организуют там лабораторию, уехав перед тем в пустыню, подальше от глаз. Первая партия готова, напарник Уолта, Джесси, идет ее реализовывать…-Все раздачи сериала- -Качество: BDRip Сэмпл
Формат: AVI
Видео кодек: XviD
Аудио кодек: AC3
Видео: 720x400 at 23.976 fps, XviD, ~1375 kbps avg, Bits/(Pixel*Frame) : 0.199
Аудио #1: 48 kHz, AC-3 5.1, 448 kbps avg |Ю. Сербин|
Аудио #2: 48 kHz, AC-3 5.1, 384 kbps avg |Оригинал|-ВНИМАНИЕ!!!
Выход сериала в переводе Юрия Сербина является спонсируемым.Если вы хотите проспонсировать выпуск новой серии, Вам в Тему сбора средств-

MI

General
Complete name : D:\Breaking Bad - S1\Breaking.Bad.S01E01.BDRip.Rus.Eng.XviD.avi
Format : AVI
Format/Info : Audio Video Interleave
File size : 923 MiB
Duration : 58mn 6s
Overall bit rate : 2 221 Kbps
Writing application : VirtualDubMod 1.5.10.2 (build 2540/release)
Writing library : VirtualDubMod build 2540/release
Video
ID : 0
Format : MPEG-4 Visual
Format profile : Advanced [email protected]
Format settings, BVOP : Yes
Format settings, QPel : No
Format settings, GMC : No warppoints
Format settings, Matrix : Default (MPEG)
Codec ID : XVID
Codec ID/Hint : XviD
Duration : 58mn 6s
Bit rate : 1 375 Kbps
Width : 720 pixels
Height : 400 pixels
Display aspect ratio : 16:9
Frame rate : 23.976 fps
Color space : YUV
Chroma subsampling : 4:2:0
Bit depth : 8 bits
Scan type : Progressive
Bits/(Pixel*Frame) : 0.199
Stream size : 571 MiB (62%)
Writing library : XviD 1.2.1 (UTC 2008-12-04)
Audio #1
ID : 1
Format : AC-3
Format/Info : Audio Coding 3
Mode extension : CM (complete main)
Codec ID : 2000
Duration : 58mn 6s
Bit rate mode : Constant
Bit rate : 448 Kbps
Channel(s) : 6 channels
Channel positions : Front: L C R, Side: L R, LFE
Sampling rate : 48.0 KHz
Stream size : 186 MiB (20%)
Alignment : Split accross interleaves
Interleave, duration : 42 ms (1.00 video frame)
Interleave, preload duration : 500 ms
Audio #2
ID : 2
Format : AC-3
Format/Info : Audio Coding 3
Mode extension : CM (complete main)
Codec ID : 2000
Duration : 58mn 6s
Bit rate mode : Constant
Bit rate : 384 Kbps
Channel(s) : 6 channels
Channel positions : Front: L C R, Side: L R, LFE
Sampling rate : 48.0 KHz
Stream size : 160 MiB (17%)
Alignment : Split accross interleaves
Interleave, duration : 42 ms (1.00 video frame)
Interleave, preload duration : 500 ms

Скриншоты

-

Внимание! Раздача ведётся путём добавления новых серий!

Внимание! Раздача ведётся путём добавления новых серий; при каждом добавлении создётся новый торрент. Чтобы начать докачку новой серии, пользователям необходимо сделать следующее:
(1) остановить скачивание,
(2) удалить старый торрент у себя из клиента (старые серии удалять не надо),
(3) скачать новый торрент и запустить его у себя в клиенте вместо старого, при этом указать клиенту путь в старую папку куда и должно происходить скачивание новых серий.
Ваш клиент при этом должен произвести хеширование (проверку) старой папки (если не производит сам - помогите ему сделать это), и будет докачивать только те серии которых у вас ещё нет. Старые серии при этом не удаляются, а продолжают раздаваться!
Eсли вы уже удалили старые серии, то предотвратить повторную закачку старых серий можно, отжав галочку в соответсвующих местах при запуске нового торрента.
-Инициатор проекта Maldivess
Работа со звуком lostrator

Огромное СПАСИБО за спонсирование сериала!

Огромное СПАСИБО за спонсирование сериала:
lostrator, HPotter, SckraT, Encefalion, Leojazz, roiman, Norvil, oleg-k, arvideo, Razminka2009
Вы не можете начинать темы
Вы не можете отвечать на сообщения
Вы не можете редактировать свои сообщения
Вы не можете удалять свои сообщения
Вы не можете голосовать в опросах
Вы не можете прикреплять файлы к сообщениям
Вы можете скачивать файлы
!ВНИМАНИЕ!

Сайт не предоставляет электронные версии произведений, а занимается лишь коллекционированием и каталогизацией ссылок, присылаемых и публикуемых на форуме нашими читателями. Если вы являетесь правообладателем какого-либо представленного материала и не желаете, чтобы ссылка на него находилась в нашем каталоге, свяжитесь с нами, и мы незамедлительно удалим ее. Файлы для обмена на трекере предоставлены пользователями сайта, и администрация не несет ответственности за их содержание. Просьба не заливать файлы, защищенные авторскими правами, а также файлы нелегального содержания!

Искали программы, игры, дополнения, музыка mp3, аниме, аудио книги, журналы? Добро пожаловать на свободный торрент трекер Torrents, у нас можно скачать бесплатно, без смс и регистрации и прочих ограничений лучшие, отборные сборки программ, игр. Скачать торрентом не составит труда даже не опытному пользователю. Раздачи ежедневно обновляются, только лучшие и качественные раздачи, подробные описания и скриншоты. Огромная коллекция программ для работы со звуком, графикой, дизайном, а так же множество плагинов и инструментов к ним с подробной инструкцией и рекомендациями. Прошивки для навигаторов, карты. Разнообразные игры, для Windows, Linux. В коллекцие есть и старые игры любых жанров, Rpg, Action, Shooter, strategy Множество дополнений, модификаций, сценариев для популярных игр в жанре экш, рпг, гонки, стратегии, логические игры. Множество аддонов и сценариев для Microsoft Flight Simulator Большая коллекция книг, учебников. Если нет возможности купить печатное издание - смело скачивайте цифровую версию книги или, быть может, журнала. Не любите читать - можно загрузить бесплатно аудикнигу. Для веб дизайнеров и программистов так же найдется множество специализированного софта, таких как: редакторы с подсветкой, среды программирования, компоненты, системы управления базами данных, разнообразные скрипты и шаблоны. Не так давно у нас появился материал для автолюбителей и владельцев мото - оригинальные и неоригинальные каталоги запчастей, книги и журналы по ремонту и обслуживанию, видеоуроки, статьи по чип тюнингу, прошивкам. Процедура получения контента элементарная, достаточно просто скачать торрент файл и добавить его в загрузку в вашем торрент клиенте. Если у вас нет специального торрент клиента, вы можете его скачать у нас.