Во все тяжкие / Breaking Bad / Сезон: 2 / Серии: 1-13 (A. Bernstein, M. M. MacLaren, V. Gilligan) [2009, США, Криминальная драма, DVD9] 

Цитировать
Во все тяжкие / Breaking Bad
Год выпуска: 2009
Страна: США
Жанр: Криминальная драма
Продолжительность: 09:51:47
Перевод: профессиональный двухголосый закадровый
Русские субтитры: нет
Субтитры: отсутствуют
Режиссёр: A. Bernstein, M. M. MacLaren, V. Gilligan
В ролях: Bryan Cranston, Anna Gunn, Aaron Paul, Dean Norris, Betsy Brandt, R. J. Mitte, Steven Michael Quezada
Описание: Продолжение телесериала о неизлечимо больном учителе химии, занимающемся изготовлением наркотика ради обеспечения будущего своей семьи.
Доп. информация: 2*DVD9 (1-й: эпизоды 1-7, 2-й: 8-13)
Ссылка на предыдущие и альтернативные раздачи: http://rutracker.org/forum/tracker.php?&f%5B%5D=189&s=2&o=1&tm=-1...m=Breaking%20Bad
Сэмплы:
DVD1: http://onemove.ru/41558/
DVD2: http://onemove.ru/41560/
Качество: DVD9
Формат: DVD-Video
Видео кодек: MPEG2
Аудио кодек: AC3
Видео: PAL, 16:9, 720*576
Аудио: Русский, AC3, 48.0 kHz, 2 ch, 192 kbps
Аудио 2: Английский, AC3, 48.0 kHz, 2 ch, 192 kbps

MI

DVD1

General
Complete name : J:\Vo vse tyajkie\Season 2\Disk 1\VIDEO_TS\VIDEO_TS.BUP
Format : DVD Video
Format profile : Menu
File size : 10.0 KiB
Video
ID : 224 (0xE0)
Format : MPEG Video
Format version : Version 1
Bit rate mode : Variable
Width : 720 pixels
Height : 480 pixels
Display aspect ratio : 4:3
Frame rate : 29.970 fps
Standard : NTSC
Compression mode : Lossy
General
Complete name : J:\Vo vse tyajkie\Season 2\Disk 1\VIDEO_TS\VIDEO_TS.IFO
Format : DVD Video
Format profile : Menu
File size : 10.0 KiB
Video
ID : 224 (0xE0)
Format : MPEG Video
Format version : Version 1
Bit rate mode : Variable
Width : 720 pixels
Height : 480 pixels
Display aspect ratio : 4:3
Frame rate : 29.970 fps
Standard : NTSC
Compression mode : Lossy
General
Complete name : J:\Vo vse tyajkie\Season 2\Disk 1\VIDEO_TS\VTS_01_0.BUP
Format : DVD Video
Format profile : Program
File size : 12.0 KiB
Duration : 32s 0ms
Overall bit rate : 3 072 bps
Video
ID : 224 (0xE0)
Format : MPEG Video
Format version : Version 2
Duration : 32s 0ms
Bit rate mode : Variable
Width : 720 pixels
Height : 576 pixels
Display aspect ratio : 4:3
Frame rate : 25.000 fps
Standard : PAL
Compression mode : Lossy
Audio
ID : 128 (0x80)
Format : AC-3
Format/Info : Audio Coding 3
Duration : 32s 0ms
Channel(s) : 2 channels
Sampling rate : 48.0 KHz
Compression mode : Lossy
Language : Russian
Menu
Duration : 32s 0ms
00:00:00.000 : Chapter 1
List (Audio) : 0
General
Complete name : J:\Vo vse tyajkie\Season 2\Disk 1\VIDEO_TS\VTS_01_0.IFO
Format : DVD Video
Format profile : Program
File size : 12.0 KiB
Duration : 32s 0ms
Overall bit rate : 3 072 bps
Video
ID : 224 (0xE0)
Format : MPEG Video
Format version : Version 2
Duration : 32s 0ms
Bit rate mode : Variable
Width : 720 pixels
Height : 576 pixels
Display aspect ratio : 4:3
Frame rate : 25.000 fps
Standard : PAL
Compression mode : Lossy
Audio
ID : 128 (0x80)
Format : AC-3
Format/Info : Audio Coding 3
Duration : 32s 0ms
Channel(s) : 2 channels
Sampling rate : 48.0 KHz
Compression mode : Lossy
Language : Russian
Menu
Duration : 32s 0ms
00:00:00.000 : Chapter 1
List (Audio) : 0
General
Complete name : J:\Vo vse tyajkie\Season 2\Disk 1\VIDEO_TS\VTS_01_1.VOB
Format : MPEG-PS
File size : 26.0 MiB
Duration : 32s 0ms
Overall bit rate : 6 816 Kbps
Writing library : encoded by TMPGEnc 4.0 XPress Version. 4.7.4.299
Video
ID : 224 (0xE0)
Format : MPEG Video
Format version : Version 2
Format profile : [email protected]
Format settings, BVOP : Yes
Format settings, Matrix : Default
Format settings, GOP : M=3, N=13
Duration : 32s 0ms
Bit rate mode : Variable
Bit rate : 6 489 Kbps
Nominal bit rate : 9 200 Kbps
Width : 720 pixels
Height : 576 pixels
Display aspect ratio : 4:3
Frame rate : 25.000 fps
Standard : PAL
Color space : YUV
Chroma subsampling : 4:2:0
Bit depth : 8 bits
Scan type : Interlaced
Scan order : Top Field First
Compression mode : Lossy
Bits/(Pixel*Frame) : 0.626
Stream size : 24.8 MiB (95%)
Writing library : TMPGEnc XPress 4.7.4.299
Audio
ID : 128 (0x80)
Format : AC-3
Format/Info : Audio Coding 3
Mode extension : CM (complete main)
Duration : 32s 0ms
Bit rate mode : Constant
Bit rate : 192 Kbps
Channel(s) : 2 channels
Channel positions : Front: L R
Sampling rate : 48.0 KHz
Bit depth : 16 bits
Compression mode : Lossy
Stream size : 750 KiB (3%)
Menu
General
Complete name : J:\Vo vse tyajkie\Season 2\Disk 1\VIDEO_TS\VTS_02_0.BUP
Format : DVD Video
Format profile : Program
File size : 210 KiB
Duration : 5h 18mn
Overall bit rate : 89 bps
Video
ID : 224 (0xE0)
Format : MPEG Video
Format version : Version 2
Duration : 5h 18mn
Bit rate mode : Variable
Width : 720 pixels
Height : 576 pixels
Display aspect ratio : 16:9
Frame rate : 25.000 fps
Standard : PAL
Compression mode : Lossy
Audio #1
ID : 128 (0x80)
Format : AC-3
Format/Info : Audio Coding 3
Duration : 5h 18mn
Channel(s) : 2 channels
Sampling rate : 48.0 KHz
Compression mode : Lossy
Language : Russian
Audio #2
ID : 129 (0x81)
Format : AC-3
Format/Info : Audio Coding 3
Duration : 5h 18mn
Channel(s) : 2 channels
Sampling rate : 48.0 KHz
Compression mode : Lossy
Language : English
Menu #1
Duration : 5h 18mn
00:00:00.000 : Chapter 1
00:00:03.000 : Chapter 2
00:05:03.040 : Chapter 3
00:10:03.080 : Chapter 4
00:15:03.120 : Chapter 5
00:20:03.160 : Chapter 6
00:25:03.200 : Chapter 7
00:30:03.240 : Chapter 8
00:35:02.760 : Chapter 9
00:40:02.800 : Chapter 10
00:45:22.600 : Chapter 11
00:45:23.400 : Chapter 12
00:45:26.400 : Chapter 13
00:50:26.440 : Chapter 14
00:55:26.480 : Chapter 15
01:00:26.520 : Chapter 16
01:05:26.560 : Chapter 17
01:10:26.600 : Chapter 18
01:15:26.640 : Chapter 19
01:20:26.160 : Chapter 20
01:25:26.200 : Chapter 21
01:31:26.560 : Chapter 22
01:31:27.200 : Chapter 23
01:31:30.200 : Chapter 24
01:36:30.240 : Chapter 25
01:41:30.280 : Chapter 26
01:46:30.320 : Chapter 27
01:51:30.360 : Chapter 28
01:56:30.400 : Chapter 29
02:01:30.440 : Chapter 30
02:06:29.960 : Chapter 31
02:11:30.000 : Chapter 32
02:16:35.240 : Chapter 33
02:16:35.800 : Chapter 34
02:16:38.800 : Chapter 35
02:21:38.840 : Chapter 36
02:26:38.880 : Chapter 37
02:31:38.920 : Chapter 38
02:36:38.960 : Chapter 39
02:41:39.000 : Chapter 40
02:46:39.040 : Chapter 41
02:51:38.560 : Chapter 42
02:56:38.600 : Chapter 43
03:02:07.240 : Chapter 44
03:02:08.000 : Chapter 45
03:02:11.000 : Chapter 46
03:07:11.040 : Chapter 47
03:12:11.080 : Chapter 48
03:17:11.120 : Chapter 49
03:22:11.160 : Chapter 50
03:27:11.200 : Chapter 51
03:32:11.240 : Chapter 52
03:37:10.760 : Chapter 53
03:42:10.800 : Chapter 54
03:47:36.320 : Chapter 55
03:47:37.000 : Chapter 56
03:47:40.000 : Chapter 57
03:52:40.040 : Chapter 58
03:57:40.080 : Chapter 59
04:02:40.120 : Chapter 60
04:07:40.160 : Chapter 61
04:12:40.200 : Chapter 62
04:17:40.240 : Chapter 63
04:22:39.760 : Chapter 64
04:27:39.800 : Chapter 65
04:33:05.840 : Chapter 66
04:33:06.640 : Chapter 67
04:33:09.640 : Chapter 68
04:38:09.680 : Chapter 69
04:43:09.720 : Chapter 70
04:48:09.760 : Chapter 71
04:53:09.800 : Chapter 72
04:58:09.840 : Chapter 73
05:03:09.880 : Chapter 74
05:08:09.400 : Chapter 75
05:13:09.440 : Chapter 76
05:18:35.480 : Chapter 77
List (Audio) : 0 / 1
Menu #2
Duration : 45mn 23s
00:00:00.000 : Chapter 1
00:00:03.000 : Chapter 2
00:00:08.000 : Chapter 3
00:00:13.000 : Chapter 4
00:00:18.000 : Chapter 5
00:00:23.000 : Chapter 6
00:00:28.000 : Chapter 7
00:00:33.000 : Chapter 8
00:00:37.760 : Chapter 9
00:00:42.760 : Chapter 10
00:01:06.760 : Chapter 11
List (Audio) : 0 / 1
General
Complete name : J:\Vo vse tyajkie\Season 2\Disk 1\VIDEO_TS\VTS_02_0.IFO
Format : DVD Video
Format profile : Program
File size : 210 KiB
Duration : 5h 18mn
Overall bit rate : 89 bps
Video
ID : 224 (0xE0)
Format : MPEG Video
Format version : Version 2
Duration : 5h 18mn
Bit rate mode : Variable
Width : 720 pixels
Height : 576 pixels
Display aspect ratio : 16:9
Frame rate : 25.000 fps
Standard : PAL
Compression mode : Lossy
Audio #1
ID : 128 (0x80)
Format : AC-3
Format/Info : Audio Coding 3
Duration : 5h 18mn
Channel(s) : 2 channels
Sampling rate : 48.0 KHz
Compression mode : Lossy
Language : Russian
Audio #2
ID : 129 (0x81)
Format : AC-3
Format/Info : Audio Coding 3
Duration : 5h 18mn
Channel(s) : 2 channels
Sampling rate : 48.0 KHz
Compression mode : Lossy
Language : English
Menu #1
Duration : 5h 18mn
00:00:00.000 : Chapter 1
00:00:03.000 : Chapter 2
00:05:03.040 : Chapter 3
00:10:03.080 : Chapter 4
00:15:03.120 : Chapter 5
00:20:03.160 : Chapter 6
00:25:03.200 : Chapter 7
00:30:03.240 : Chapter 8
00:35:02.760 : Chapter 9
00:40:02.800 : Chapter 10
00:45:22.600 : Chapter 11
00:45:23.400 : Chapter 12
00:45:26.400 : Chapter 13
00:50:26.440 : Chapter 14
00:55:26.480 : Chapter 15
01:00:26.520 : Chapter 16
01:05:26.560 : Chapter 17
01:10:26.600 : Chapter 18
01:15:26.640 : Chapter 19
01:20:26.160 : Chapter 20
01:25:26.200 : Chapter 21
01:31:26.560 : Chapter 22
01:31:27.200 : Chapter 23
01:31:30.200 : Chapter 24
01:36:30.240 : Chapter 25
01:41:30.280 : Chapter 26
01:46:30.320 : Chapter 27
01:51:30.360 : Chapter 28
01:56:30.400 : Chapter 29
02:01:30.440 : Chapter 30
02:06:29.960 : Chapter 31
02:11:30.000 : Chapter 32
02:16:35.240 : Chapter 33
02:16:35.800 : Chapter 34
02:16:38.800 : Chapter 35
02:21:38.840 : Chapter 36
02:26:38.880 : Chapter 37
02:31:38.920 : Chapter 38
02:36:38.960 : Chapter 39
02:41:39.000 : Chapter 40
02:46:39.040 : Chapter 41
02:51:38.560 : Chapter 42
02:56:38.600 : Chapter 43
03:02:07.240 : Chapter 44
03:02:08.000 : Chapter 45
03:02:11.000 : Chapter 46
03:07:11.040 : Chapter 47
03:12:11.080 : Chapter 48
03:17:11.120 : Chapter 49
03:22:11.160 : Chapter 50
03:27:11.200 : Chapter 51
03:32:11.240 : Chapter 52
03:37:10.760 : Chapter 53
03:42:10.800 : Chapter 54
03:47:36.320 : Chapter 55
03:47:37.000 : Chapter 56
03:47:40.000 : Chapter 57
03:52:40.040 : Chapter 58
03:57:40.080 : Chapter 59
04:02:40.120 : Chapter 60
04:07:40.160 : Chapter 61
04:12:40.200 : Chapter 62
04:17:40.240 : Chapter 63
04:22:39.760 : Chapter 64
04:27:39.800 : Chapter 65
04:33:05.840 : Chapter 66
04:33:06.640 : Chapter 67
04:33:09.640 : Chapter 68
04:38:09.680 : Chapter 69
04:43:09.720 : Chapter 70
04:48:09.760 : Chapter 71
04:53:09.800 : Chapter 72
04:58:09.840 : Chapter 73
05:03:09.880 : Chapter 74
05:08:09.400 : Chapter 75
05:13:09.440 : Chapter 76
05:18:35.480 : Chapter 77
List (Audio) : 0 / 1
Menu #2
Duration : 45mn 23s
00:00:00.000 : Chapter 1
00:00:03.000 : Chapter 2
00:00:08.000 : Chapter 3
00:00:13.000 : Chapter 4
00:00:18.000 : Chapter 5
00:00:23.000 : Chapter 6
00:00:28.000 : Chapter 7
00:00:33.000 : Chapter 8
00:00:37.760 : Chapter 9
00:00:42.760 : Chapter 10
00:01:06.760 : Chapter 11
List (Audio) : 0 / 1
General
Complete name : J:\Vo vse tyajkie\Season 2\Disk 1\VIDEO_TS\VTS_02_0.VOB
Format : MPEG-PS
File size : 524 KiB
Video
ID : 224 (0xE0)
Format : MPEG Video
Format version : Version 2
Format profile : [email protected]
Format settings, BVOP : No
Format settings, Matrix : Default
Format settings, GOP : N=1
Bit rate mode : Constant
Bit rate : 8 000 Kbps
Width : 720 pixels
Height : 576 pixels
Display aspect ratio : 4:3
Frame rate : 25.000 fps
Standard : PAL
Color space : YUV
Chroma subsampling : 4:2:0
Bit depth : 8 bits
Scan type : Progressive
Scan order : Top Field First
Compression mode : Lossy
Bits/(Pixel*Frame) : 0.772
Text
ID : 32 (0x20)
Format : RLE
Format/Info : Run-length encoding
Menu
General
Complete name : J:\Vo vse tyajkie\Season 2\Disk 1\VIDEO_TS\VTS_02_1.VOB
Format : MPEG-PS
File size : 1 024 MiB
Duration : 42mn 20s
Overall bit rate : 3 381 Kbps
Video
ID : 224 (0xE0)
Format : MPEG Video
Format version : Version 2
Format profile : [email protected]
Format settings, BVOP : Yes
Format settings, Matrix : Default
Format settings, GOP : M=3, N=12
Duration : 42mn 20s
Bit rate mode : Variable
Bit rate : 2 929 Kbps
Nominal bit rate : 7 000 Kbps
Width : 720 pixels
Height : 576 pixels
Display aspect ratio : 16:9
Frame rate : 25.000 fps
Standard : PAL
Color space : YUV
Chroma subsampling : 4:2:0
Bit depth : 8 bits
Scan type : Progressive
Compression mode : Lossy
Bits/(Pixel*Frame) : 0.283
Stream size : 887 MiB (87%)
Audio #1
ID : 128 (0x80)
Format : AC-3
Format/Info : Audio Coding 3
Mode extension : CM (complete main)
Duration : 42mn 20s
Bit rate mode : Constant
Bit rate : 192 Kbps
Channel(s) : 2 channels
Channel positions : Front: L R
Sampling rate : 48.0 KHz
Bit depth : 16 bits
Compression mode : Lossy
Delay relative to video : -80ms
Stream size : 58.1 MiB (6%)
Audio #2
ID : 129 (0x81)
Format : AC-3
Format/Info : Audio Coding 3
Mode extension : CM (complete main)
Duration : 42mn 20s
Bit rate mode : Constant
Bit rate : 192 Kbps
Channel(s) : 2 channels
Channel positions : Front: L R
Sampling rate : 48.0 KHz
Bit depth : 16 bits
Compression mode : Lossy
Delay relative to video : -80ms
Stream size : 58.1 MiB (6%)
Menu
General
Complete name : J:\Vo vse tyajkie\Season 2\Disk 1\VIDEO_TS\VTS_02_2.VOB
Format : MPEG-PS
File size : 1 024 MiB
Overall bit rate : 1 999 bps
Video
ID : 224 (0xE0)
Format : MPEG Video
Format version : Version 2
Format profile : [email protected]
Format settings, BVOP : Yes
Format settings, Matrix : Default
Format settings, GOP : M=3, N=13
Bit rate mode : Variable
Nominal bit rate : 9 200 Kbps
Width : 720 pixels
Height : 576 pixels
Display aspect ratio : 16:9
Frame rate : 25.000 fps
Standard : PAL
Color space : YUV
Chroma subsampling : 4:2:0
Bit depth : 8 bits
Scan type : Progressive
Compression mode : Lossy
Bits/(Pixel*Frame) : 0.887
Audio #1
ID : 128 (0x80)
Format : AC-3
Format/Info : Audio Coding 3
Mode extension : CM (complete main)
Bit rate mode : Constant
Bit rate : 192 Kbps
Channel(s) : 2 channels
Channel positions : Front: L R
Sampling rate : 48.0 KHz
Bit depth : 16 bits
Compression mode : Lossy
Delay relative to video : -144ms
Stream size : 96.0 GiB
Audio #2
ID : 129 (0x81)
Format : AC-3
Format/Info : Audio Coding 3
Mode extension : CM (complete main)
Bit rate mode : Constant
Bit rate : 192 Kbps
Channel(s) : 2 channels
Channel positions : Front: L R
Sampling rate : 48.0 KHz
Bit depth : 16 bits
Compression mode : Lossy
Delay relative to video : -144ms
Stream size : 96.0 GiB
Menu
General
Complete name : J:\Vo vse tyajkie\Season 2\Disk 1\VIDEO_TS\VTS_02_3.VOB
Format : MPEG-PS
File size : 1 024 MiB
Overall bit rate : 1 999 bps
Video
ID : 224 (0xE0)
Format : MPEG Video
Format version : Version 2
Format profile : [email protected]
Format settings, BVOP : Yes
Format settings, Matrix : Default
Format settings, GOP : M=3, N=13
Bit rate mode : Variable
Nominal bit rate : 9 200 Kbps
Width : 720 pixels
Height : 576 pixels
Display aspect ratio : 16:9
Frame rate : 25.000 fps
Standard : PAL
Color space : YUV
Chroma subsampling : 4:2:0
Bit depth : 8 bits
Scan type : Progressive
Compression mode : Lossy
Bits/(Pixel*Frame) : 0.887
Audio #1
ID : 128 (0x80)
Format : AC-3
Format/Info : Audio Coding 3
Mode extension : CM (complete main)
Bit rate mode : Constant
Bit rate : 192 Kbps
Channel(s) : 2 channels
Channel positions : Front: L R
Sampling rate : 48.0 KHz
Bit depth : 16 bits
Compression mode : Lossy
Delay relative to video : -152ms
Stream size : 96.0 GiB
Audio #2
ID : 129 (0x81)
Format : AC-3
Format/Info : Audio Coding 3
Mode extension : CM (complete main)
Bit rate mode : Constant
Bit rate : 192 Kbps
Channel(s) : 2 channels
Channel positions : Front: L R
Sampling rate : 48.0 KHz
Bit depth : 16 bits
Compression mode : Lossy
Delay relative to video : -152ms
Stream size : 96.0 GiB
Menu
General
Complete name : J:\Vo vse tyajkie\Season 2\Disk 1\VIDEO_TS\VTS_02_4.VOB
Format : MPEG-PS
File size : 1 024 MiB
Overall bit rate : 1 999 bps
Video
ID : 224 (0xE0)
Format : MPEG Video
Format version : Version 2
Format profile : [email protected]
Format settings, BVOP : Yes
Format settings, Matrix : Default
Format settings, GOP : M=3, N=13
Bit rate mode : Variable
Nominal bit rate : 9 200 Kbps
Width : 720 pixels
Height : 576 pixels
Display aspect ratio : 16:9
Frame rate : 25.000 fps
Standard : PAL
Color space : YUV
Chroma subsampling : 4:2:0
Bit depth : 8 bits
Scan type : Progressive
Compression mode : Lossy
Bits/(Pixel*Frame) : 0.887
Audio #1
ID : 128 (0x80)
Format : AC-3
Format/Info : Audio Coding 3
Mode extension : CM (complete main)
Bit rate mode : Constant
Bit rate : 192 Kbps
Channel(s) : 2 channels
Channel positions : Front: L R
Sampling rate : 48.0 KHz
Bit depth : 16 bits
Compression mode : Lossy
Delay relative to video : -136ms
Stream size : 96.0 GiB
Audio #2
ID : 129 (0x81)
Format : AC-3
Format/Info : Audio Coding 3
Mode extension : CM (complete main)
Bit rate mode : Constant
Bit rate : 192 Kbps
Channel(s) : 2 channels
Channel positions : Front: L R
Sampling rate : 48.0 KHz
Bit depth : 16 bits
Compression mode : Lossy
Delay relative to video : -136ms
Stream size : 96.0 GiB
Menu
General
Complete name : J:\Vo vse tyajkie\Season 2\Disk 1\VIDEO_TS\VTS_02_5.VOB
Format : MPEG-PS
File size : 1 024 MiB
Overall bit rate : 1 999 bps
Video
ID : 224 (0xE0)
Format : MPEG Video
Format version : Version 2
Format profile : [email protected]
Format settings, BVOP : Yes
Format settings, Matrix : Default
Format settings, GOP : M=3, N=13
Bit rate mode : Variable
Nominal bit rate : 9 200 Kbps
Width : 720 pixels
Height : 576 pixels
Display aspect ratio : 16:9
Frame rate : 25.000 fps
Standard : PAL
Color space : YUV
Chroma subsampling : 4:2:0
Bit depth : 8 bits
Scan type : Progressive
Compression mode : Lossy
Bits/(Pixel*Frame) : 0.887
Audio #1
ID : 128 (0x80)
Format : AC-3
Format/Info : Audio Coding 3
Mode extension : CM (complete main)
Bit rate mode : Constant
Bit rate : 192 Kbps
Channel(s) : 2 channels
Channel positions : Front: L R
Sampling rate : 48.0 KHz
Bit depth : 16 bits
Compression mode : Lossy
Delay relative to video : -80ms
Stream size : 96.0 GiB
Audio #2
ID : 129 (0x81)
Format : AC-3
Format/Info : Audio Coding 3
Mode extension : CM (complete main)
Bit rate mode : Constant
Bit rate : 192 Kbps
Channel(s) : 2 channels
Channel positions : Front: L R
Sampling rate : 48.0 KHz
Bit depth : 16 bits
Compression mode : Lossy
Delay relative to video : -80ms
Stream size : 96.0 GiB
Menu
General
Complete name : J:\Vo vse tyajkie\Season 2\Disk 1\VIDEO_TS\VTS_02_6.VOB
Format : MPEG-PS
File size : 1 024 MiB
Overall bit rate : 1 999 bps
Video
ID : 224 (0xE0)
Format : MPEG Video
Format version : Version 2
Format profile : [email protected]
Format settings, BVOP : Yes
Format settings, Matrix : Default
Format settings, GOP : M=3, N=13
Bit rate mode : Variable
Nominal bit rate : 9 200 Kbps
Width : 720 pixels
Height : 576 pixels
Display aspect ratio : 16:9
Frame rate : 25.000 fps
Standard : PAL
Color space : YUV
Chroma subsampling : 4:2:0
Bit depth : 8 bits
Scan type : Progressive
Compression mode : Lossy
Bits/(Pixel*Frame) : 0.887
Audio #1
ID : 128 (0x80)
Format : AC-3
Format/Info : Audio Coding 3
Mode extension : CM (complete main)
Bit rate mode : Constant
Bit rate : 192 Kbps
Channel(s) : 2 channels
Channel positions : Front: L R
Sampling rate : 48.0 KHz
Bit depth : 16 bits
Compression mode : Lossy
Delay relative to video : -128ms
Stream size : 96.0 GiB
Audio #2
ID : 129 (0x81)
Format : AC-3
Format/Info : Audio Coding 3
Mode extension : CM (complete main)
Bit rate mode : Constant
Bit rate : 192 Kbps
Channel(s) : 2 channels
Channel positions : Front: L R
Sampling rate : 48.0 KHz
Bit depth : 16 bits
Compression mode : Lossy
Delay relative to video : -128ms
Stream size : 96.0 GiB
Menu
General
Complete name : J:\Vo vse tyajkie\Season 2\Disk 1\VIDEO_TS\VTS_02_7.VOB
Format : MPEG-PS
File size : 1 024 MiB
Overall bit rate : 1 999 bps
Video
ID : 224 (0xE0)
Format : MPEG Video
Format version : Version 2
Format profile : [email protected]
Format settings, BVOP : Yes
Format settings, Matrix : Default
Format settings, GOP : M=3, N=13
Bit rate mode : Variable
Nominal bit rate : 9 200 Kbps
Width : 720 pixels
Height : 576 pixels
Display aspect ratio : 16:9
Frame rate : 25.000 fps
Standard : PAL
Color space : YUV
Chroma subsampling : 4:2:0
Bit depth : 8 bits
Scan type : Progressive
Compression mode : Lossy
Bits/(Pixel*Frame) : 0.887
Audio #1
ID : 128 (0x80)
Format : AC-3
Format/Info : Audio Coding 3
Mode extension : CM (complete main)
Bit rate mode : Constant
Bit rate : 192 Kbps
Channel(s) : 2 channels
Channel positions : Front: L R
Sampling rate : 48.0 KHz
Bit depth : 16 bits
Compression mode : Lossy
Delay relative to video : -128ms
Stream size : 96.0 GiB
Audio #2
ID : 129 (0x81)
Format : AC-3
Format/Info : Audio Coding 3
Mode extension : CM (complete main)
Bit rate mode : Constant
Bit rate : 192 Kbps
Channel(s) : 2 channels
Channel positions : Front: L R
Sampling rate : 48.0 KHz
Bit depth : 16 bits
Compression mode : Lossy
Delay relative to video : -128ms
Stream size : 96.0 GiB
Menu
General
Complete name : J:\Vo vse tyajkie\Season 2\Disk 1\VIDEO_TS\VTS_02_8.VOB
Format : MPEG-PS
File size : 471 MiB
Duration : 20mn 9s
Overall bit rate : 3 266 Kbps
Video
ID : 224 (0xE0)
Format : MPEG Video
Format version : Version 2
Format profile : [email protected]
Format settings, BVOP : Yes
Format settings, Matrix : Default
Format settings, GOP : M=3, N=13
Duration : 20mn 9s
Bit rate mode : Variable
Bit rate : 2 817 Kbps
Nominal bit rate : 9 200 Kbps
Width : 720 pixels
Height : 576 pixels
Display aspect ratio : 16:9
Frame rate : 25.000 fps
Standard : PAL
Color space : YUV
Chroma subsampling : 4:2:0
Bit depth : 8 bits
Scan type : Progressive
Compression mode : Lossy
Bits/(Pixel*Frame) : 0.272
Stream size : 406 MiB (86%)
Audio #1
ID : 128 (0x80)
Format : AC-3
Format/Info : Audio Coding 3
Mode extension : CM (complete main)
Duration : 20mn 9s
Bit rate mode : Constant
Bit rate : 192 Kbps
Channel(s) : 2 channels
Channel positions : Front: L R
Sampling rate : 48.0 KHz
Bit depth : 16 bits
Compression mode : Lossy
Delay relative to video : -104ms
Stream size : 27.7 MiB (6%)
Audio #2
ID : 129 (0x81)
Format : AC-3
Format/Info : Audio Coding 3
Mode extension : CM (complete main)
Duration : 20mn 9s
Bit rate mode : Constant
Bit rate : 192 Kbps
Channel(s) : 2 channels
Channel positions : Front: L R
Sampling rate : 48.0 KHz
Bit depth : 16 bits
Compression mode : Lossy
Delay relative to video : -104ms
Stream size : 27.7 MiB (6%)
Menu
General
Complete name : J:\Vo vse tyajkie\Season 2\Disk 1\VIDEO_TS\VTS_03_0.BUP
Format : DVD Video
Format profile : Program
File size : 12.0 KiB
Duration : 56s 120ms
Overall bit rate : 1 751 bps
Video
ID : 224 (0xE0)
Format : MPEG Video
Format version : Version 2
Duration : 56s 120ms
Bit rate mode : Variable
Width : 720 pixels
Height : 576 pixels
Display aspect ratio : 16:9
Frame rate : 25.000 fps
Standard : PAL
Compression mode : Lossy
Audio
ID : 128 (0x80)
Format : AC-3
Format/Info : Audio Coding 3
Duration : 56s 120ms
Channel(s) : 2 channels
Sampling rate : 48.0 KHz
Compression mode : Lossy
Language : Russian
Menu
Duration : 56s 120ms
00:00:00.000 : Chapter 1
List (Audio) : 0
General
Complete name : J:\Vo vse tyajkie\Season 2\Disk 1\VIDEO_TS\VTS_03_0.IFO
Format : DVD Video
Format profile : Program
File size : 12.0 KiB
Duration : 56s 120ms
Overall bit rate : 1 751 bps
Video
ID : 224 (0xE0)
Format : MPEG Video
Format version : Version 2
Duration : 56s 120ms
Bit rate mode : Variable
Width : 720 pixels
Height : 576 pixels
Display aspect ratio : 16:9
Frame rate : 25.000 fps
Standard : PAL
Compression mode : Lossy
Audio
ID : 128 (0x80)
Format : AC-3
Format/Info : Audio Coding 3
Duration : 56s 120ms
Channel(s) : 2 channels
Sampling rate : 48.0 KHz
Compression mode : Lossy
Language : Russian
Menu
Duration : 56s 120ms
00:00:00.000 : Chapter 1
List (Audio) : 0
General
Complete name : J:\Vo vse tyajkie\Season 2\Disk 1\VIDEO_TS\VTS_03_1.VOB
Format : MPEG-PS
File size : 49.9 MiB
Duration : 56s 128ms
Overall bit rate : 7 454 Kbps
Writing library : encoded by TMPGEnc 4.0 XPress Version. 4.7.4.299
Video
ID : 224 (0xE0)
Format : MPEG Video
Format version : Version 2
Format profile : [email protected]
Format settings, BVOP : Yes
Format settings, Matrix : Default
Format settings, GOP : M=3, N=13
Duration : 56s 120ms
Bit rate mode : Variable
Bit rate : 7 114 Kbps
Nominal bit rate : 9 200 Kbps
Width : 720 pixels
Height : 576 pixels
Display aspect ratio : 16:9
Frame rate : 25.000 fps
Standard : PAL
Color space : YUV
Chroma subsampling : 4:2:0
Bit depth : 8 bits
Scan type : Interlaced
Scan order : Top Field First
Compression mode : Lossy
Bits/(Pixel*Frame) : 0.686
Stream size : 47.6 MiB (95%)
Writing library : TMPGEnc XPress 4.7.4.299
Audio
ID : 128 (0x80)
Format : AC-3
Format/Info : Audio Coding 3
Mode extension : CM (complete main)
Duration : 56s 128ms
Bit rate mode : Constant
Bit rate : 192 Kbps
Channel(s) : 2 channels
Channel positions : Front: L R
Sampling rate : 48.0 KHz
Bit depth : 16 bits
Compression mode : Lossy
Stream size : 1.28 MiB (3%)
Menu

DVD2

General
Complete name : J:\Vo vse tyajkie\Season 2\Disk 2\VIDEO_TS\VIDEO_TS.BUP
Format : DVD Video
Format profile : Menu
File size : 10.0 KiB
Video
ID : 224 (0xE0)
Format : MPEG Video
Format version : Version 1
Bit rate mode : Variable
Width : 720 pixels
Height : 480 pixels
Display aspect ratio : 4:3
Frame rate : 29.970 fps
Standard : NTSC
Compression mode : Lossy
General
Complete name : J:\Vo vse tyajkie\Season 2\Disk 2\VIDEO_TS\VIDEO_TS.IFO
Format : DVD Video
Format profile : Menu
File size : 10.0 KiB
Video
ID : 224 (0xE0)
Format : MPEG Video
Format version : Version 1
Bit rate mode : Variable
Width : 720 pixels
Height : 480 pixels
Display aspect ratio : 4:3
Frame rate : 29.970 fps
Standard : NTSC
Compression mode : Lossy
General
Complete name : J:\Vo vse tyajkie\Season 2\Disk 2\VIDEO_TS\VTS_01_0.BUP
Format : DVD Video
Format profile : Program
File size : 12.0 KiB
Duration : 34s 0ms
Overall bit rate : 2 891 bps
Video
ID : 224 (0xE0)
Format : MPEG Video
Format version : Version 2
Duration : 34s 0ms
Bit rate mode : Variable
Width : 720 pixels
Height : 576 pixels
Display aspect ratio : 4:3
Frame rate : 25.000 fps
Standard : PAL
Compression mode : Lossy
Audio
ID : 128 (0x80)
Format : AC-3
Format/Info : Audio Coding 3
Duration : 34s 0ms
Channel(s) : 2 channels
Sampling rate : 48.0 KHz
Compression mode : Lossy
Language : Russian
Menu
Duration : 34s 0ms
00:00:00.000 : Chapter 1
List (Audio) : 0
General
Complete name : J:\Vo vse tyajkie\Season 2\Disk 2\VIDEO_TS\VTS_01_0.IFO
Format : DVD Video
Format profile : Program
File size : 12.0 KiB
Duration : 34s 0ms
Overall bit rate : 2 891 bps
Video
ID : 224 (0xE0)
Format : MPEG Video
Format version : Version 2
Duration : 34s 0ms
Bit rate mode : Variable
Width : 720 pixels
Height : 576 pixels
Display aspect ratio : 4:3
Frame rate : 25.000 fps
Standard : PAL
Compression mode : Lossy
Audio
ID : 128 (0x80)
Format : AC-3
Format/Info : Audio Coding 3
Duration : 34s 0ms
Channel(s) : 2 channels
Sampling rate : 48.0 KHz
Compression mode : Lossy
Language : Russian
Menu
Duration : 34s 0ms
00:00:00.000 : Chapter 1
List (Audio) : 0
General
Complete name : J:\Vo vse tyajkie\Season 2\Disk 2\VIDEO_TS\VTS_01_1.VOB
Format : MPEG-PS
File size : 24.8 MiB
Duration : 34s 16ms
Overall bit rate : 6 116 Kbps
Writing library : encoded by TMPGEnc 4.0 XPress Version. 4.7.4.299
Video
ID : 224 (0xE0)
Format : MPEG Video
Format version : Version 2
Format profile : [email protected]
Format settings, BVOP : Yes
Format settings, Matrix : Default
Format settings, GOP : M=3, N=13
Duration : 34s 0ms
Bit rate mode : Variable
Bit rate : 5 802 Kbps
Nominal bit rate : 9 200 Kbps
Width : 720 pixels
Height : 576 pixels
Display aspect ratio : 4:3
Frame rate : 25.000 fps
Standard : PAL
Color space : YUV
Chroma subsampling : 4:2:0
Bit depth : 8 bits
Scan type : Interlaced
Scan order : Top Field First
Compression mode : Lossy
Bits/(Pixel*Frame) : 0.560
Stream size : 23.5 MiB (95%)
Writing library : TMPGEnc XPress 4.7.4.299
Audio
ID : 128 (0x80)
Format : AC-3
Format/Info : Audio Coding 3
Mode extension : CM (complete main)
Duration : 34s 16ms
Bit rate mode : Constant
Bit rate : 192 Kbps
Channel(s) : 2 channels
Channel positions : Front: L R
Sampling rate : 48.0 KHz
Bit depth : 16 bits
Compression mode : Lossy
Stream size : 797 KiB (3%)
Menu
General
Complete name : J:\Vo vse tyajkie\Season 2\Disk 2\VIDEO_TS\VTS_02_0.BUP
Format : DVD Video
Format profile : Program
File size : 12.0 KiB
Duration : 58s 720ms
Overall bit rate : 1 674 bps
Video
ID : 224 (0xE0)
Format : MPEG Video
Format version : Version 2
Duration : 58s 720ms
Bit rate mode : Variable
Width : 720 pixels
Height : 576 pixels
Display aspect ratio : 16:9
Frame rate : 25.000 fps
Standard : PAL
Compression mode : Lossy
Audio
ID : 128 (0x80)
Format : AC-3
Format/Info : Audio Coding 3
Duration : 58s 720ms
Channel(s) : 2 channels
Sampling rate : 48.0 KHz
Compression mode : Lossy
Language : Russian
Menu
Duration : 58s 720ms
00:00:00.000 : Chapter 1
List (Audio) : 0
General
Complete name : J:\Vo vse tyajkie\Season 2\Disk 2\VIDEO_TS\VTS_02_0.IFO
Format : DVD Video
Format profile : Program
File size : 12.0 KiB
Duration : 58s 720ms
Overall bit rate : 1 674 bps
Video
ID : 224 (0xE0)
Format : MPEG Video
Format version : Version 2
Duration : 58s 720ms
Bit rate mode : Variable
Width : 720 pixels
Height : 576 pixels
Display aspect ratio : 16:9
Frame rate : 25.000 fps
Standard : PAL
Compression mode : Lossy
Audio
ID : 128 (0x80)
Format : AC-3
Format/Info : Audio Coding 3
Duration : 58s 720ms
Channel(s) : 2 channels
Sampling rate : 48.0 KHz
Compression mode : Lossy
Language : Russian
Menu
Duration : 58s 720ms
00:00:00.000 : Chapter 1
List (Audio) : 0
General
Complete name : J:\Vo vse tyajkie\Season 2\Disk 2\VIDEO_TS\VTS_02_1.VOB
Format : MPEG-PS
File size : 52.7 MiB
Duration : 58s 720ms
Overall bit rate : 7 533 Kbps
Writing library : encoded by TMPGEnc 4.0 XPress Version. 4.7.4.299
Video
ID : 224 (0xE0)
Format : MPEG Video
Format version : Version 2
Format profile : [email protected]
Format settings, BVOP : Yes
Format settings, Matrix : Default
Format settings, GOP : M=3, N=13
Duration : 58s 720ms
Bit rate mode : Variable
Bit rate : 7 191 Kbps
Nominal bit rate : 9 200 Kbps
Width : 720 pixels
Height : 576 pixels
Display aspect ratio : 16:9
Frame rate : 25.000 fps
Standard : PAL
Color space : YUV
Chroma subsampling : 4:2:0
Bit depth : 8 bits
Scan type : Interlaced
Scan order : Top Field First
Compression mode : Lossy
Bits/(Pixel*Frame) : 0.694
Stream size : 50.3 MiB (95%)
Writing library : TMPGEnc XPress 4.7.4.299
Audio
ID : 128 (0x80)
Format : AC-3
Format/Info : Audio Coding 3
Mode extension : CM (complete main)
Duration : 58s 720ms
Bit rate mode : Constant
Bit rate : 192 Kbps
Channel(s) : 2 channels
Channel positions : Front: L R
Sampling rate : 48.0 KHz
Bit depth : 16 bits
Compression mode : Lossy
Stream size : 1.34 MiB (3%)
Menu
General
Complete name : J:\Vo vse tyajkie\Season 2\Disk 2\VIDEO_TS\VTS_03_0.BUP
Format : DVD Video
Format profile : Program
File size : 184 KiB
Duration : 4h 33mn
Overall bit rate : 91 bps
Video
ID : 224 (0xE0)
Format : MPEG Video
Format version : Version 2
Duration : 4h 33mn
Bit rate mode : Variable
Width : 720 pixels
Height : 576 pixels
Display aspect ratio : 16:9
Frame rate : 25.000 fps
Standard : PAL
Compression mode : Lossy
Audio #1
ID : 128 (0x80)
Format : AC-3
Format/Info : Audio Coding 3
Duration : 4h 33mn
Channel(s) : 2 channels
Sampling rate : 48.0 KHz
Compression mode : Lossy
Language : Russian
Audio #2
ID : 129 (0x81)
Format : AC-3
Format/Info : Audio Coding 3
Duration : 4h 33mn
Channel(s) : 2 channels
Sampling rate : 48.0 KHz
Compression mode : Lossy
Language : English
Menu #1
Duration : 4h 33mn
00:00:00.000 : Chapter 1
00:00:03.000 : Chapter 2
00:05:03.040 : Chapter 3
00:10:03.080 : Chapter 4
00:15:03.120 : Chapter 5
00:20:03.160 : Chapter 6
00:25:03.200 : Chapter 7
00:30:03.240 : Chapter 8
00:35:02.760 : Chapter 9
00:40:02.800 : Chapter 10
00:45:28.320 : Chapter 11
00:45:29.000 : Chapter 12
00:45:32.000 : Chapter 13
00:50:32.040 : Chapter 14
00:55:32.080 : Chapter 15
01:00:32.120 : Chapter 16
01:05:32.160 : Chapter 17
01:10:32.200 : Chapter 18
01:15:32.240 : Chapter 19
01:20:31.760 : Chapter 20
01:25:31.800 : Chapter 21
01:30:57.320 : Chapter 22
01:30:58.000 : Chapter 23
01:31:01.000 : Chapter 24
01:36:01.040 : Chapter 25
01:41:01.080 : Chapter 26
01:46:01.120 : Chapter 27
01:51:01.160 : Chapter 28
01:56:01.200 : Chapter 29
02:01:01.240 : Chapter 30
02:06:00.760 : Chapter 31
02:11:00.800 : Chapter 32
02:16:27.360 : Chapter 33
02:16:28.120 : Chapter 34
02:16:31.120 : Chapter 35
02:21:31.160 : Chapter 36
02:26:31.200 : Chapter 37
02:31:31.240 : Chapter 38
02:36:31.280 : Chapter 39
02:41:31.320 : Chapter 40
02:46:31.360 : Chapter 41
02:51:30.880 : Chapter 42
02:56:30.920 : Chapter 43
03:01:56.960 : Chapter 44
03:01:57.400 : Chapter 45
03:02:00.400 : Chapter 46
03:07:00.440 : Chapter 47
03:12:00.480 : Chapter 48
03:17:00.520 : Chapter 49
03:22:00.560 : Chapter 50
03:27:00.600 : Chapter 51
03:32:00.640 : Chapter 52
03:37:00.160 : Chapter 53
03:42:00.200 : Chapter 54
03:47:28.840 : Chapter 55
03:47:29.400 : Chapter 56
03:47:32.400 : Chapter 57
03:52:32.440 : Chapter 58
03:57:32.480 : Chapter 59
04:02:32.520 : Chapter 60
04:07:32.560 : Chapter 61
04:12:32.600 : Chapter 62
04:17:32.640 : Chapter 63
04:22:32.160 : Chapter 64
04:27:32.200 : Chapter 65
04:33:11.240 : Chapter 66
List (Audio) : 0 / 1
Menu #2
Duration : 45mn 29s
00:00:00.000 : Chapter 1
00:00:03.000 : Chapter 2
00:00:08.000 : Chapter 3
00:00:13.000 : Chapter 4
00:00:18.000 : Chapter 5
00:00:23.000 : Chapter 6
00:00:28.000 : Chapter 7
00:00:33.000 : Chapter 8
00:00:37.760 : Chapter 9
00:00:42.760 : Chapter 10
00:01:12.760 : Chapter 11
List (Audio) : 0 / 1
General
Complete name : J:\Vo vse tyajkie\Season 2\Disk 2\VIDEO_TS\VTS_03_0.IFO
Format : DVD Video
Format profile : Program
File size : 184 KiB
Duration : 4h 33mn
Overall bit rate : 91 bps
Video
ID : 224 (0xE0)
Format : MPEG Video
Format version : Version 2
Duration : 4h 33mn
Bit rate mode : Variable
Width : 720 pixels
Height : 576 pixels
Display aspect ratio : 16:9
Frame rate : 25.000 fps
Standard : PAL
Compression mode : Lossy
Audio #1
ID : 128 (0x80)
Format : AC-3
Format/Info : Audio Coding 3
Duration : 4h 33mn
Channel(s) : 2 channels
Sampling rate : 48.0 KHz
Compression mode : Lossy
Language : Russian
Audio #2
ID : 129 (0x81)
Format : AC-3
Format/Info : Audio Coding 3
Duration : 4h 33mn
Channel(s) : 2 channels
Sampling rate : 48.0 KHz
Compression mode : Lossy
Language : English
Menu #1
Duration : 4h 33mn
00:00:00.000 : Chapter 1
00:00:03.000 : Chapter 2
00:05:03.040 : Chapter 3
00:10:03.080 : Chapter 4
00:15:03.120 : Chapter 5
00:20:03.160 : Chapter 6
00:25:03.200 : Chapter 7
00:30:03.240 : Chapter 8
00:35:02.760 : Chapter 9
00:40:02.800 : Chapter 10
00:45:28.320 : Chapter 11
00:45:29.000 : Chapter 12
00:45:32.000 : Chapter 13
00:50:32.040 : Chapter 14
00:55:32.080 : Chapter 15
01:00:32.120 : Chapter 16
01:05:32.160 : Chapter 17
01:10:32.200 : Chapter 18
01:15:32.240 : Chapter 19
01:20:31.760 : Chapter 20
01:25:31.800 : Chapter 21
01:30:57.320 : Chapter 22
01:30:58.000 : Chapter 23
01:31:01.000 : Chapter 24
01:36:01.040 : Chapter 25
01:41:01.080 : Chapter 26
01:46:01.120 : Chapter 27
01:51:01.160 : Chapter 28
01:56:01.200 : Chapter 29
02:01:01.240 : Chapter 30
02:06:00.760 : Chapter 31
02:11:00.800 : Chapter 32
02:16:27.360 : Chapter 33
02:16:28.120 : Chapter 34
02:16:31.120 : Chapter 35
02:21:31.160 : Chapter 36
02:26:31.200 : Chapter 37
02:31:31.240 : Chapter 38
02:36:31.280 : Chapter 39
02:41:31.320 : Chapter 40
02:46:31.360 : Chapter 41
02:51:30.880 : Chapter 42
02:56:30.920 : Chapter 43
03:01:56.960 : Chapter 44
03:01:57.400 : Chapter 45
03:02:00.400 : Chapter 46
03:07:00.440 : Chapter 47
03:12:00.480 : Chapter 48
03:17:00.520 : Chapter 49
03:22:00.560 : Chapter 50
03:27:00.600 : Chapter 51
03:32:00.640 : Chapter 52
03:37:00.160 : Chapter 53
03:42:00.200 : Chapter 54
03:47:28.840 : Chapter 55
03:47:29.400 : Chapter 56
03:47:32.400 : Chapter 57
03:52:32.440 : Chapter 58
03:57:32.480 : Chapter 59
04:02:32.520 : Chapter 60
04:07:32.560 : Chapter 61
04:12:32.600 : Chapter 62
04:17:32.640 : Chapter 63
04:22:32.160 : Chapter 64
04:27:32.200 : Chapter 65
04:33:11.240 : Chapter 66
List (Audio) : 0 / 1
Menu #2
Duration : 45mn 29s
00:00:00.000 : Chapter 1
00:00:03.000 : Chapter 2
00:00:08.000 : Chapter 3
00:00:13.000 : Chapter 4
00:00:18.000 : Chapter 5
00:00:23.000 : Chapter 6
00:00:28.000 : Chapter 7
00:00:33.000 : Chapter 8
00:00:37.760 : Chapter 9
00:00:42.760 : Chapter 10
00:01:12.760 : Chapter 11
List (Audio) : 0 / 1
General
Complete name : J:\Vo vse tyajkie\Season 2\Disk 2\VIDEO_TS\VTS_03_0.VOB
Format : MPEG-PS
File size : 476 KiB
Duration : 40ms
Overall bit rate : 97.5 Mbps
Video
ID : 224 (0xE0)
Format : MPEG Video
Format version : Version 2
Format profile : [email protected]
Format settings, BVOP : No
Format settings, Matrix : Default
Format settings, GOP : N=1
Duration : 40ms
Bit rate mode : Constant
Bit rate : 8 000 Kbps
Width : 720 pixels
Height : 576 pixels
Display aspect ratio : 4:3
Frame rate : 25.000 fps
Standard : PAL
Color space : YUV
Chroma subsampling : 4:2:0
Bit depth : 8 bits
Scan type : Progressive
Scan order : Top Field First
Compression mode : Lossy
Bits/(Pixel*Frame) : 0.772
Stream size : 39.1 KiB (8%)
Text
ID : 32 (0x20)
Format : RLE
Format/Info : Run-length encoding
Menu
General
Complete name : J:\Vo vse tyajkie\Season 2\Disk 2\VIDEO_TS\VTS_03_1.VOB
Format : MPEG-PS
File size : 1 024 MiB
Duration : 35mn 15s
Overall bit rate : 4 060 Kbps
Video
ID : 224 (0xE0)
Format : MPEG Video
Format version : Version 2
Format profile : [email protected]
Format settings, BVOP : Yes
Format settings, Matrix : Default
Format settings, GOP : M=3, N=12
Duration : 35mn 15s
Bit rate mode : Variable
Bit rate : 3 595 Kbps
Nominal bit rate : 7 000 Kbps
Width : 720 pixels
Height : 576 pixels
Display aspect ratio : 16:9
Frame rate : 25.000 fps
Standard : PAL
Color space : YUV
Chroma subsampling : 4:2:0
Bit depth : 8 bits
Scan type : Progressive
Compression mode : Lossy
Bits/(Pixel*Frame) : 0.347
Stream size : 907 MiB (89%)
Audio #1
ID : 128 (0x80)
Format : AC-3
Format/Info : Audio Coding 3
Mode extension : CM (complete main)
Duration : 35mn 15s
Bit rate mode : Constant
Bit rate : 192 Kbps
Channel(s) : 2 channels
Channel positions : Front: L R
Sampling rate : 48.0 KHz
Bit depth : 16 bits
Compression mode : Lossy
Delay relative to video : -80ms
Stream size : 48.4 MiB (5%)
Audio #2
ID : 129 (0x81)
Format : AC-3
Format/Info : Audio Coding 3
Mode extension : CM (complete main)
Duration : 35mn 15s
Bit rate mode : Constant
Bit rate : 192 Kbps
Channel(s) : 2 channels
Channel positions : Front: L R
Sampling rate : 48.0 KHz
Bit depth : 16 bits
Compression mode : Lossy
Delay relative to video : -80ms
Stream size : 48.4 MiB (5%)
Menu
General
Complete name : J:\Vo vse tyajkie\Season 2\Disk 2\VIDEO_TS\VTS_03_2.VOB
Format : MPEG-PS
File size : 1 024 MiB
Overall bit rate : 2 000 bps
Video
ID : 224 (0xE0)
Format : MPEG Video
Format version : Version 2
Format profile : [email protected]
Format settings, BVOP : Yes
Format settings, Matrix : Default
Format settings, GOP : M=3, N=13
Bit rate mode : Variable
Nominal bit rate : 9 200 Kbps
Width : 720 pixels
Height : 576 pixels
Display aspect ratio : 16:9
Frame rate : 25.000 fps
Standard : PAL
Color space : YUV
Chroma subsampling : 4:2:0
Bit depth : 8 bits
Scan type : Progressive
Compression mode : Lossy
Bits/(Pixel*Frame) : 0.887
Audio #1
ID : 128 (0x80)
Format : AC-3
Format/Info : Audio Coding 3
Mode extension : CM (complete main)
Bit rate mode : Constant
Bit rate : 192 Kbps
Channel(s) : 2 channels
Channel positions : Front: L R
Sampling rate : 48.0 KHz
Bit depth : 16 bits
Compression mode : Lossy
Delay relative to video : -104ms
Stream size : 96.0 GiB
Audio #2
ID : 129 (0x81)
Format : AC-3
Format/Info : Audio Coding 3
Mode extension : CM (complete main)
Bit rate mode : Constant
Bit rate : 192 Kbps
Channel(s) : 2 channels
Channel positions : Front: L R
Sampling rate : 48.0 KHz
Bit depth : 16 bits
Compression mode : Lossy
Delay relative to video : -104ms
Stream size : 96.0 GiB
Menu
General
Complete name : J:\Vo vse tyajkie\Season 2\Disk 2\VIDEO_TS\VTS_03_3.VOB
Format : MPEG-PS
File size : 1 024 MiB
Overall bit rate : 1 999 bps
Video
ID : 224 (0xE0)
Format : MPEG Video
Format version : Version 2
Format profile : [email protected]
Format settings, BVOP : Yes
Format settings, Matrix : Default
Format settings, GOP : M=3, N=13
Bit rate mode : Variable
Nominal bit rate : 9 200 Kbps
Width : 720 pixels
Height : 576 pixels
Display aspect ratio : 16:9
Frame rate : 25.000 fps
Standard : PAL
Color space : YUV
Chroma subsampling : 4:2:0
Bit depth : 8 bits
Scan type : Progressive
Compression mode : Lossy
Bits/(Pixel*Frame) : 0.887
Audio #1
ID : 128 (0x80)
Format : AC-3
Format/Info : Audio Coding 3
Mode extension : CM (complete main)
Bit rate mode : Constant
Bit rate : 192 Kbps
Channel(s) : 2 channels
Channel positions : Front: L R
Sampling rate : 48.0 KHz
Bit depth : 16 bits
Compression mode : Lossy
Delay relative to video : -128ms
Stream size : 96.0 GiB
Audio #2
ID : 129 (0x81)
Format : AC-3
Format/Info : Audio Coding 3
Mode extension : CM (complete main)
Bit rate mode : Constant
Bit rate : 192 Kbps
Channel(s) : 2 channels
Channel positions : Front: L R
Sampling rate : 48.0 KHz
Bit depth : 16 bits
Compression mode : Lossy
Delay relative to video : -128ms
Stream size : 96.0 GiB
Menu
General
Complete name : J:\Vo vse tyajkie\Season 2\Disk 2\VIDEO_TS\VTS_03_4.VOB
Format : MPEG-PS
File size : 1 024 MiB
Overall bit rate : 2 000 bps
Video
ID : 224 (0xE0)
Format : MPEG Video
Format version : Version 2
Format profile : [email protected]
Format settings, BVOP : Yes
Format settings, Matrix : Default
Format settings, GOP : M=3, N=13
Bit rate mode : Variable
Nominal bit rate : 9 200 Kbps
Width : 720 pixels
Height : 576 pixels
Display aspect ratio : 16:9
Frame rate : 25.000 fps
Standard : PAL
Color space : YUV
Chroma subsampling : 4:2:0
Bit depth : 8 bits
Scan type : Progressive
Compression mode : Lossy
Bits/(Pixel*Frame) : 0.887
Audio #1
ID : 128 (0x80)
Format : AC-3
Format/Info : Audio Coding 3
Mode extension : CM (complete main)
Bit rate mode : Constant
Bit rate : 192 Kbps
Channel(s) : 2 channels
Channel positions : Front: L R
Sampling rate : 48.0 KHz
Bit depth : 16 bits
Compression mode : Lossy
Delay relative to video : -120ms
Stream size : 96.0 GiB
Audio #2
ID : 129 (0x81)
Format : AC-3
Format/Info : Audio Coding 3
Mode extension : CM (complete main)
Bit rate mode : Constant
Bit rate : 192 Kbps
Channel(s) : 2 channels
Channel positions : Front: L R
Sampling rate : 48.0 KHz
Bit depth : 16 bits
Compression mode : Lossy
Delay relative to video : -120ms
Stream size : 96.0 GiB
Menu
General
Complete name : J:\Vo vse tyajkie\Season 2\Disk 2\VIDEO_TS\VTS_03_5.VOB
Format : MPEG-PS
File size : 1 024 MiB
Duration : 36mn 7s
Overall bit rate : 3 963 Kbps
Video
ID : 224 (0xE0)
Format : MPEG Video
Format version : Version 2
Format profile : [email protected]
Format settings, BVOP : Yes
Format settings, Matrix : Default
Format settings, GOP : M=3, N=13
Duration : 36mn 7s
Bit rate mode : Variable
Bit rate : 3 500 Kbps
Nominal bit rate : 9 200 Kbps
Width : 720 pixels
Height : 576 pixels
Display aspect ratio : 16:9
Frame rate : 25.000 fps
Standard : PAL
Color space : YUV
Chroma subsampling : 4:2:0
Bit depth : 8 bits
Scan type : Progressive
Compression mode : Lossy
Bits/(Pixel*Frame) : 0.338
Stream size : 904 MiB (88%)
Audio #1
ID : 128 (0x80)
Format : AC-3
Format/Info : Audio Coding 3
Mode extension : CM (complete main)
Duration : 36mn 7s
Bit rate mode : Constant
Bit rate : 192 Kbps
Channel(s) : 2 channels
Channel positions : Front: L R
Sampling rate : 48.0 KHz
Bit depth : 16 bits
Compression mode : Lossy
Delay relative to video : -104ms
Stream size : 49.6 MiB (5%)
Audio #2
ID : 129 (0x81)
Format : AC-3
Format/Info : Audio Coding 3
Mode extension : CM (complete main)
Duration : 36mn 7s
Bit rate mode : Constant
Bit rate : 192 Kbps
Channel(s) : 2 channels
Channel positions : Front: L R
Sampling rate : 48.0 KHz
Bit depth : 16 bits
Compression mode : Lossy
Delay relative to video : -104ms
Stream size : 49.6 MiB (5%)
Menu
General
Complete name : J:\Vo vse tyajkie\Season 2\Disk 2\VIDEO_TS\VTS_03_6.VOB
Format : MPEG-PS
File size : 1 024 MiB
Overall bit rate : 2 000 bps
Video
ID : 224 (0xE0)
Format : MPEG Video
Format version : Version 2
Format profile : [email protected]
Format settings, BVOP : Yes
Format settings, Matrix : Default
Format settings, GOP : M=3, N=13
Bit rate mode : Variable
Nominal bit rate : 9 200 Kbps
Width : 720 pixels
Height : 576 pixels
Display aspect ratio : 16:9
Frame rate : 25.000 fps
Standard : PAL
Color space : YUV
Chroma subsampling : 4:2:0
Bit depth : 8 bits
Scan type : Progressive
Compression mode : Lossy
Bits/(Pixel*Frame) : 0.887
Audio #1
ID : 128 (0x80)
Format : AC-3
Format/Info : Audio Coding 3
Mode extension : CM (complete main)
Bit rate mode : Constant
Bit rate : 192 Kbps
Channel(s) : 2 channels
Channel positions : Front: L R
Sampling rate : 48.0 KHz
Bit depth : 16 bits
Compression mode : Lossy
Delay relative to video : -136ms
Stream size : 96.0 GiB
Audio #2
ID : 129 (0x81)
Format : AC-3
Format/Info : Audio Coding 3
Mode extension : CM (complete main)
Bit rate mode : Constant
Bit rate : 192 Kbps
Channel(s) : 2 channels
Channel positions : Front: L R
Sampling rate : 48.0 KHz
Bit depth : 16 bits
Compression mode : Lossy
Delay relative to video : -136ms
Stream size : 96.0 GiB
Menu
General
Complete name : J:\Vo vse tyajkie\Season 2\Disk 2\VIDEO_TS\VTS_03_7.VOB
Format : MPEG-PS
File size : 1 024 MiB
Overall bit rate : 2 000 bps
Video
ID : 224 (0xE0)
Format : MPEG Video
Format version : Version 2
Format profile : [email protected]
Format settings, BVOP : Yes
Format settings, Matrix : Default
Format settings, GOP : M=3, N=13
Bit rate mode : Variable
Nominal bit rate : 9 200 Kbps
Width : 720 pixels
Height : 576 pixels
Display aspect ratio : 16:9
Frame rate : 25.000 fps
Standard : PAL
Color space : YUV
Chroma subsampling : 4:2:0
Bit depth : 8 bits
Scan type : Progressive
Compression mode : Lossy
Bits/(Pixel*Frame) : 0.887
Audio #1
ID : 128 (0x80)
Format : AC-3
Format/Info : Audio Coding 3
Mode extension : CM (complete main)
Bit rate mode : Constant
Bit rate : 192 Kbps
Channel(s) : 2 channels
Channel positions : Front: L R
Sampling rate : 48.0 KHz
Bit depth : 16 bits
Compression mode : Lossy
Delay relative to video : -144ms
Stream size : 96.0 GiB
Audio #2
ID : 129 (0x81)
Format : AC-3
Format/Info : Audio Coding 3
Mode extension : CM (complete main)
Bit rate mode : Constant
Bit rate : 192 Kbps
Channel(s) : 2 channels
Channel positions : Front: L R
Sampling rate : 48.0 KHz
Bit depth : 16 bits
Compression mode : Lossy
Delay relative to video : -144ms
Stream size : 96.0 GiB
Menu
General
Complete name : J:\Vo vse tyajkie\Season 2\Disk 2\VIDEO_TS\VTS_03_8.VOB
Format : MPEG-PS
File size : 760 MiB
Duration : 26mn 39s
Overall bit rate : 3 986 Kbps
Video
ID : 224 (0xE0)
Format : MPEG Video
Format version : Version 2
Format profile : [email protected]
Format settings, BVOP : Yes
Format settings, Matrix : Default
Format settings, GOP : M=3, N=13
Duration : 26mn 39s
Bit rate mode : Variable
Bit rate : 3 523 Kbps
Nominal bit rate : 9 200 Kbps
Width : 720 pixels
Height : 576 pixels
Display aspect ratio : 16:9
Frame rate : 25.000 fps
Standard : PAL
Color space : YUV
Chroma subsampling : 4:2:0
Bit depth : 8 bits
Scan type : Progressive
Compression mode : Lossy
Bits/(Pixel*Frame) : 0.340
Stream size : 672 MiB (88%)
Audio #1
ID : 128 (0x80)
Format : AC-3
Format/Info : Audio Coding 3
Mode extension : CM (complete main)
Duration : 26mn 39s
Bit rate mode : Constant
Bit rate : 192 Kbps
Channel(s) : 2 channels
Channel positions : Front: L R
Sampling rate : 48.0 KHz
Bit depth : 16 bits
Compression mode : Lossy
Delay relative to video : -160ms
Stream size : 36.6 MiB (5%)
Audio #2
ID : 129 (0x81)
Format : AC-3
Format/Info : Audio Coding 3
Mode extension : CM (complete main)
Duration : 26mn 39s
Bit rate mode : Constant
Bit rate : 192 Kbps
Channel(s) : 2 channels
Channel positions : Front: L R
Sampling rate : 48.0 KHz
Bit depth : 16 bits
Compression mode : Lossy
Delay relative to video : -160ms
Stream size : 36.6 MiB (5%)
Menu

Скриншоты

Вы не можете начинать темы
Вы не можете отвечать на сообщения
Вы не можете редактировать свои сообщения
Вы не можете удалять свои сообщения
Вы не можете голосовать в опросах
Вы не можете прикреплять файлы к сообщениям
Вы можете скачивать файлы
!ВНИМАНИЕ!

Сайт не предоставляет электронные версии произведений, а занимается лишь коллекционированием и каталогизацией ссылок, присылаемых и публикуемых на форуме нашими читателями. Если вы являетесь правообладателем какого-либо представленного материала и не желаете, чтобы ссылка на него находилась в нашем каталоге, свяжитесь с нами, и мы незамедлительно удалим ее. Файлы для обмена на трекере предоставлены пользователями сайта, и администрация не несет ответственности за их содержание. Просьба не заливать файлы, защищенные авторскими правами, а также файлы нелегального содержания!

Искали программы, игры, дополнения, музыка mp3, аниме, аудио книги, журналы? Добро пожаловать на свободный торрент трекер Torrents, у нас можно скачать бесплатно, без смс и регистрации и прочих ограничений лучшие, отборные сборки программ, игр. Скачать торрентом не составит труда даже не опытному пользователю. Раздачи ежедневно обновляются, только лучшие и качественные раздачи, подробные описания и скриншоты. Огромная коллекция программ для работы со звуком, графикой, дизайном, а так же множество плагинов и инструментов к ним с подробной инструкцией и рекомендациями. Прошивки для навигаторов, карты. Разнообразные игры, для Windows, Linux. В коллекцие есть и старые игры любых жанров, Rpg, Action, Shooter, strategy Множество дополнений, модификаций, сценариев для популярных игр в жанре экш, рпг, гонки, стратегии, логические игры. Множество аддонов и сценариев для Microsoft Flight Simulator Большая коллекция книг, учебников. Если нет возможности купить печатное издание - смело скачивайте цифровую версию книги или, быть может, журнала. Не любите читать - можно загрузить бесплатно аудикнигу. Для веб дизайнеров и программистов так же найдется множество специализированного софта, таких как: редакторы с подсветкой, среды программирования, компоненты, системы управления базами данных, разнообразные скрипты и шаблоны. Не так давно у нас появился материал для автолюбителей и владельцев мото - оригинальные и неоригинальные каталоги запчастей, книги и журналы по ремонту и обслуживанию, видеоуроки, статьи по чип тюнингу, прошивкам. Процедура получения контента элементарная, достаточно просто скачать торрент файл и добавить его в загрузку в вашем торрент клиенте. Если у вас нет специального торрент клиента, вы можете его скачать у нас.