Во все тяжкие / Breaking Bad / Сезон 1 / Серии 1-7 (7) (Адам Бернштейн) [2008, США, драма, криминал, BDRip] AVO (Ю. Сербин) 

Цитировать
Во все тяжкие / Breaking Bad-- Год выхода в эфир: 2008
Страна: США | USA / AMC
Жанр: драма, криминал
Продолжительность: ~ 00:47:00
Перевод: Авторский (одноголосый, закадровый) /Ю.Сербин/
Субтитры: нет
Режиссер: Адам Бернштейн, Брайан Крэнстон-В ролях: Брайан Крэнстон, Анна Ганн, Аарон Пол, Дин Норрис, Бетси Брандт, Эр Джей, Стивен Майкл Квезада, Кристен Риттер, Дэвид Хаус, Кармен Серано...-Описание: Уолтер Уайт — преподаватель химии в школе. У него есть жена и сын-инвалид, жена ждет еще одного ребенка. Уолт уже не молод, и в этом возрасте часто бывают кризисы, тем более нужно кормить семью, а на зарплату преподавателя не разгуляешься, поэтому он вынужден подрабатывать на автомойке, где его же студенты над ним насмехаются, а еще сын, чью инвалидность тоже постоянно осмеивают.
Его свояк работает в Управлении по борьбе с наркотиками и однажды предлагает поучаствовать в облаве на дом, где находится лаборатория по приготовлению метамфентамина. Во время облавы Уолт случайно видит, как один дилер сбегает от облавы, им оказывается его бывший студент.
Уолт решает заняться с ним бизнесом по приготовлению метамфетамина, так как он на изломе, что ему терять: он бросил работу на автомойке, секс с женой ограничивается только рукоблудием с ее стороны, ему поставили диагноз — неоперабельный рак легких, да и свояк постоянно говорит, что метамфетамин приносит огромные деньги. Кто еще может приготовить чистейший метамфетамин, как не учитель химии?
Уолт и его напарник снимают трейлер и организуют там лабораторию, уехав перед тем в пустыню, подальше от глаз. Первая партия готова, напарник Уолта, Джесси, идет ее реализовывать…
- Все раздачи сериала- -Качество: BDRip (источник: BDRemux/1080p)
Формат: AVI [сэмпл]
Видео кодек: XviD
Аудио кодек: MP3
Видео: 720*400 (1.80), 23.976 fps, XviD MPEG-4, ~1180 kbps, 0.17 bit/pixel
Аудио #1: 48.0 KHz, 2 ch, 128 Kbps |Ю.Сербин|
Аудио #2: 48.0 KHz, 2 ch, 128 Kbps |Original|-Озвучка: Ю.Сербин
Работа со звуком: lostrator
Подготовка видео: Мосенька--
--

Список серий-
  • Pilot / Пилот
  • Cat's in the Bag... / Шила в мешке не утаишь...
  • ...And the Bag's in the River / ... и мешок за спиной тоже
  • Cancer Man / Человек с раком легких
  • Gray Matter / Серое вещество
  • Crazy Handful of Nothin' / Ошалелый блеф
  • A No-Rough-Stuff-Type Deal / Прожжённые наркодельцы--

    MI

    Общее
    Полное имя : I:\Во все тяжкие (Сезон 1) Сербин\Breaking.Bad.S01E01.BDRip.avi
    Формат : AVI
    Формат/Информация : Audio Video Interleave
    Размер файла : 601 Мбайт
    Продолжительность : 58 м.
    Общий поток : 1445 Кбит/сек
    Программа кодирования : VirtualDubMod 1.5.10.3 | www.virtualdub-fr.org || (build 2550/release)
    Библиотека кодирования : VirtualDubMod build 2550/release
    Видео
    Идентификатор : 0
    Формат : MPEG-4 Visual
    Профиль формата : Advanced [email protected]
    Параметр BVOP формата : 1
    Параметр QPel формата : Нет
    Параметр GMC формата : Без точки перехода
    Параметр матрицы формата : Выборочная
    Идентификатор кодека : XVID
    Идентификатор кодека/Подсказка : XviD
    Продолжительность : 58 м.
    Битрейт : 1175 Кбит/сек
    Ширина : 720 пикселей
    Высота : 400 пикселей
    Соотношение сторон : 16:9
    Частота кадров : 23,976 кадра/сек
    Цветовое пространство : YUV
    Субдискретизация насыщенности : 4:2:0
    Битовая глубина : 8 бит
    Тип развёртки : Прогрессивная
    Метод сжатия : С потерями
    Бит/(Пиксели*Кадры) : 0.170
    Размер потока : 488 Мбайт (81%)
    Библиотека кодирования : XviD 63
    Аудио #1
    Идентификатор : 1
    Формат : MPEG Audio
    Версия формата : Version 1
    Профиль формата : Layer 3
    Режим : Joint stereo
    Расширение режима : MS Stereo
    Идентификатор кодека : 55
    Идентификатор кодека/Подсказка : MP3
    Продолжительность : 58 м.
    Вид битрейта : Постоянный
    Битрейт : 128 Кбит/сек
    Каналы : 2 канала
    Частота : 48,0 КГц
    Метод сжатия : С потерями
    Размер потока : 53,2 Мбайт (9%)
    Выравнивание : Соединение по промежуткам
    Продолжительность промежутка : 42 мс. (1,00 видеокадр)
    Время предзагрузки промежутка : 504 мс.
    Библиотека кодирования : LAME3.98r
    Настройки программы : -m j -V 4 -q 0 -lowpass 17 -b 128
    Аудио #2
    Идентификатор : 2
    Формат : MPEG Audio
    Версия формата : Version 1
    Профиль формата : Layer 3
    Режим : Joint stereo
    Расширение режима : MS Stereo
    Идентификатор кодека : 55
    Идентификатор кодека/Подсказка : MP3
    Продолжительность : 58 м.
    Вид битрейта : Постоянный
    Битрейт : 128 Кбит/сек
    Каналы : 2 канала
    Частота : 48,0 КГц
    Метод сжатия : С потерями
    Размер потока : 53,2 Мбайт (9%)
    Выравнивание : Соединение по промежуткам
    Продолжительность промежутка : 42 мс. (1,00 видеокадр)
    Время предзагрузки промежутка : 504 мс.
    -
  • Вы не можете начинать темы
    Вы не можете отвечать на сообщения
    Вы не можете редактировать свои сообщения
    Вы не можете удалять свои сообщения
    Вы не можете голосовать в опросах
    Вы не можете прикреплять файлы к сообщениям
    Вы можете скачивать файлы
    !ВНИМАНИЕ!

    Сайт не предоставляет электронные версии произведений, а занимается лишь коллекционированием и каталогизацией ссылок, присылаемых и публикуемых на форуме нашими читателями. Если вы являетесь правообладателем какого-либо представленного материала и не желаете, чтобы ссылка на него находилась в нашем каталоге, свяжитесь с нами, и мы незамедлительно удалим ее. Файлы для обмена на трекере предоставлены пользователями сайта, и администрация не несет ответственности за их содержание. Просьба не заливать файлы, защищенные авторскими правами, а также файлы нелегального содержания!

    Искали программы, игры, дополнения, музыка mp3, аниме, аудио книги, журналы? Добро пожаловать на свободный торрент трекер Torrents, у нас можно скачать бесплатно, без смс и регистрации и прочих ограничений лучшие, отборные сборки программ, игр. Скачать торрентом не составит труда даже не опытному пользователю. Раздачи ежедневно обновляются, только лучшие и качественные раздачи, подробные описания и скриншоты. Огромная коллекция программ для работы со звуком, графикой, дизайном, а так же множество плагинов и инструментов к ним с подробной инструкцией и рекомендациями. Прошивки для навигаторов, карты. Разнообразные игры, для Windows, Linux. В коллекцие есть и старые игры любых жанров, Rpg, Action, Shooter, strategy Множество дополнений, модификаций, сценариев для популярных игр в жанре экш, рпг, гонки, стратегии, логические игры. Множество аддонов и сценариев для Microsoft Flight Simulator Большая коллекция книг, учебников. Если нет возможности купить печатное издание - смело скачивайте цифровую версию книги или, быть может, журнала. Не любите читать - можно загрузить бесплатно аудикнигу. Для веб дизайнеров и программистов так же найдется множество специализированного софта, таких как: редакторы с подсветкой, среды программирования, компоненты, системы управления базами данных, разнообразные скрипты и шаблоны. Не так давно у нас появился материал для автолюбителей и владельцев мото - оригинальные и неоригинальные каталоги запчастей, книги и журналы по ремонту и обслуживанию, видеоуроки, статьи по чип тюнингу, прошивкам. Процедура получения контента элементарная, достаточно просто скачать торрент файл и добавить его в загрузку в вашем торрент клиенте. Если у вас нет специального торрент клиента, вы можете его скачать у нас.