Другая земля / Зеленая легенда Рана / Green Legend Ran (Сага Сатоси) [OVA] [3 из 3] [Без хардсаба] [RUS(ext),JAP+SUB] [1992, приключения, драма, фантастика, DVDRip] 

Цитировать
Другая земля / Зеленая легенда Рана / Green Legend Ran- Страна: Япония
Год выпуска: 1992-1993
Жанр: приключения, драма, фантастика
Тип: OVA
Продолжительность: 3 эп. по ~46 мин.-Режиссёр: Сага Сатоси
Сценарий: Ямамото Ю
Студия: AIC-Озвучка:
Многоголосная MC Entertainment-Субтитры: есть
русские (внешние) ASS полные
SHmeLL & Turpis-английские (встроенные) ASS полные/надписи
Kuraze-Описание: Земная цивилизация погубила себя отходами собственной жизнедеятельности – загрязнила воду, иссушила почву, истощила недра. Однако настоящий апокалипсис случился, всё-таки, не сам собой: из космоса прибыли пришельцы – Родо, которые выкачали остатки воды и ископаемых, превратив голубую планету в засохший глиняный шар.
Остатки человечества пугливо поклоняются пришлым богам и чтут заповеди родоистов. Но силы сопротивления в лице солдат Хаззарда уже готовятся к последней битве за Землю.
© Анастасия Розанова, World Art-Информационные ссылки: AniDB | MyAnimeList | World Art-Качество: DVDRip (R2J)
Релиз/Автор рипа: Koten_Gars
Совместимость с бытовыми плеерами: Нет
Наличие линковки: Нет
Тип видео: без хардсаба
Формат: MKV
Видео: x264, 706x480 / 2 эп. 702x480, (4/3), ~3200кбит/с, 23,976fps, 10 bit
Аудио #1 (внешняя) русская - AC3, 2 ch, 192кбит/с, 48000Hz
Аудио #2 (в контейнере) японская - AC3, 2 ch, 384кбит/с, 48000Hz-

Инструкция по просмотру

* Чтобы смотреть с озвучкой, необходимо из папки Rus sound переписать файлы в папку, где находятся видеофайлы. Далее, следует запустить плеер и переключиться на mka-дорожку. Подробное описание здесь
* Чтобы смотреть 10-битное видео (10bit), необходимо, исходя из ваших предпочтений используемого проигрывателя, воспользоваться
этой инструкцией.
* Чтобы смотреть с субтитрами, необходимо из папки Rus subs переписать файлы в папку, где находятся видеофайлы. В большинстве плееров, одноимённые субтитры подключатся автоматически.
-

Список эпизодов

01. Departure
02. Green 5
03. Holy Green
-

Отличия

http://rutracker.org/forum/viewtopic.php?t=775371 - наличие озвучки
-

Скриншоты

-

MediaInfo

Общее
Уникальный идентификатор : 189608646942255372510326154285703057518 (0x8EA54C0DD5658E8D8C963D85CE05506E)
Полное имя : D:\Торенты №2\Green Legend Ran [DVDRip 480p]\[Koten_Gars] Green Legend Ran OVA - 01 [DVD][Hi10][480p][AC3].mkv
Формат : Matroska
Версия формата : Version 2
Размер файла : 1,16 Гбайт
Продолжительность : 44 м. 49 с.
Общий поток : 3693 Кбит/сек
Название фильма : Green Legend Ran
Дата кодирования : UTC 2018-09-22 06:39:55
Программа кодирования : mkvmerge v2.9.7 ('Tenderness') built on Jul 1 2009 18:43:35
Библиотека кодирования : libebml v0.7.7 + libmatroska v0.8.1
Attachments : Humana Sans Md ITC TT Medium.ttf / paradox-mosaic.regular.ttf / ExpensiveSolutions.ttf / ANTQUAB.TTF / ANTQUABI.TTF
Видео
Идентификатор : 1
Формат : AVC
Формат/Информация : Advanced Video Codec
Профиль формата : High [email protected]
Настройки формата : CABAC / 16 Ref Frames
Параметр CABAC формата : Да
Параметр RefFrames формата : 16 кадров
Идентификатор кодека : V_MPEG4/ISO/AVC
Продолжительность : 44 м. 49 с.
Битрейт : 3235 Кбит/сек
Ширина : 706 пикселей
Высота : 480 пикселей
Соотношение сторон : 4:3
Соотношение сторон в оригинале : 3:2
Режим частоты кадров : Постоянный
Частота кадров : 23,976 (24000/1001) кадра/сек
Цветовое пространство : YUV
Субдискретизация насыщенности : 4:2:0
Битовая глубина : 10 бит
Тип развёртки : Прогрессивная
Бит/(Пиксели*Кадры) : 0.398
Размер потока : 1,01 Гбайт (88%)
Заголовок : Episode 01 - Departure
Библиотека кодирования : x264 core 155 r2901 7d0ff22
Настройки программы : cabac=1 / ref=16 / deblock=1:0:0 / analyse=0x3:0x133 / me=tesa / subme=10 / psy=1 / psy_rd=1.00:0.00 / mixed_ref=1 / me_range=32 / chroma_me=1 / trellis=2 / 8x8dct=1 / cqm=0 / deadzone=21,11 / fast_pskip=1 / chroma_qp_offset=-2 / threads=6 / lookahead_threads=1 / sliced_threads=0 / nr=0 / decimate=1 / interlaced=0 / bluray_compat=0 / constrained_intra=0 / bframes=8 / b_pyramid=2 / b_adapt=2 / b_bias=0 / direct=3 / weightb=1 / open_gop=0 / weightp=2 / keyint=240 / keyint_min=23 / scenecut=40 / intra_refresh=0 / rc_lookahead=120 / rc=crf / mbtree=1 / crf=16.0 / qcomp=0.80 / qpmin=0 / qpmax=69 / qpstep=4 / vbv_maxrate=300000 / vbv_bufsize=300000 / crf_max=0.0 / nal_hrd=none / filler=0 / ip_ratio=1.30 / aq=1:1.00
Язык : Japanese
Default : Да
Forced : Нет
Аудио
Идентификатор : 2
Формат : AC-3
Формат/Информация : Audio Coding 3
Идентификатор кодека : A_AC3
Продолжительность : 44 м. 49 с.
Вид битрейта : Постоянный
Битрейт : 384 Кбит/сек
Каналы : 2 канала
Расположение каналов : Front: L R
Частота : 48,0 КГц
Частота кадров : 31,250 кадров/сек (1536 SPF)
Битовая глубина : 16 бит
Метод сжатия : С потерями
Размер потока : 123 Мбайт (10%)
Заголовок : Dolby Digital 2.0
Язык : Japanese
ServiceKind/String : Complete Main
Default : Да
Forced : Нет
Текст #1
Идентификатор : 3
Формат : ASS
Идентификатор кодека : S_TEXT/ASS
Идентификатор кодека/Информация : Advanced Sub Station Alpha
Метод сжатия : Без потерь
Заголовок : Signs
Язык : English
Default : Да
Forced : Нет
Текст #2
Идентификатор : 4
Формат : ASS
Идентификатор кодека : S_TEXT/ASS
Идентификатор кодека/Информация : Advanced Sub Station Alpha
Метод сжатия : Без потерь
Заголовок : Dialogue
Язык : English
Default : Нет
Forced : Нет
Меню
00:00:00.000 : en:Chapter 1
00:01:21.000 : en:Chapter 2
00:43:16.000 : en:Chapter 3
-
Вы не можете начинать темы
Вы не можете отвечать на сообщения
Вы не можете редактировать свои сообщения
Вы не можете удалять свои сообщения
Вы не можете голосовать в опросах
Вы не можете прикреплять файлы к сообщениям
Вы можете скачивать файлы
!ВНИМАНИЕ!

Сайт не предоставляет электронные версии произведений, а занимается лишь коллекционированием и каталогизацией ссылок, присылаемых и публикуемых на форуме нашими читателями. Если вы являетесь правообладателем какого-либо представленного материала и не желаете, чтобы ссылка на него находилась в нашем каталоге, свяжитесь с нами, и мы незамедлительно удалим ее. Файлы для обмена на трекере предоставлены пользователями сайта, и администрация не несет ответственности за их содержание. Просьба не заливать файлы, защищенные авторскими правами, а также файлы нелегального содержания!

Искали программы, игры, дополнения, музыка mp3, аниме, аудио книги, журналы? Добро пожаловать на свободный торрент трекер Torrents, у нас можно скачать бесплатно, без смс и регистрации и прочих ограничений лучшие, отборные сборки программ, игр. Скачать торрентом не составит труда даже не опытному пользователю. Раздачи ежедневно обновляются, только лучшие и качественные раздачи, подробные описания и скриншоты. Огромная коллекция программ для работы со звуком, графикой, дизайном, а так же множество плагинов и инструментов к ним с подробной инструкцией и рекомендациями. Прошивки для навигаторов, карты. Разнообразные игры, для Windows, Linux. В коллекцие есть и старые игры любых жанров, Rpg, Action, Shooter, strategy Множество дополнений, модификаций, сценариев для популярных игр в жанре экш, рпг, гонки, стратегии, логические игры. Множество аддонов и сценариев для Microsoft Flight Simulator Большая коллекция книг, учебников. Если нет возможности купить печатное издание - смело скачивайте цифровую версию книги или, быть может, журнала. Не любите читать - можно загрузить бесплатно аудикнигу. Для веб дизайнеров и программистов так же найдется множество специализированного софта, таких как: редакторы с подсветкой, среды программирования, компоненты, системы управления базами данных, разнообразные скрипты и шаблоны. Не так давно у нас появился материал для автолюбителей и владельцев мото - оригинальные и неоригинальные каталоги запчастей, книги и журналы по ремонту и обслуживанию, видеоуроки, статьи по чип тюнингу, прошивкам. Процедура получения контента элементарная, достаточно просто скачать торрент файл и добавить его в загрузку в вашем торрент клиенте. Если у вас нет специального торрент клиента, вы можете его скачать у нас.