Мисс Хаммурапи / Ms. Hammurabi [16/16] [2018, Юридическая драма, мелодрама, HDTVRip] [RAW] [720p] DVO (Храм Дорам ТВ) 

Цитировать
Мисс Хаммурапи / Ms. Hammurabi
Страна: Южная Корея
Год выпуска: 2018
Жанр: Юридическая драма, мелодрама
Продолжительность: 16 х ~01:05:00
Режиссер: Квак Чон Хван / Kwak Jung Hwan
В ролях: Эль (Мён Су Ким), А Ра Го, Дон Иль Сон, Док Хван Рю,Эллия Ли, Ин Бом Го, Чхоль Мин Ли, Тхэ Сон Ли, Ён Ок Ким, Сун Чхон Пак
Перевод: Любительский двухголосый
автор перевода: Фансаб-группу Shadows - озвучка группы ВК: Храм Дорам ТВ
Описание:
Увидимся в суде
Мисс Хаммурапи - сериал о молодой юристке, которая приступила к исполнению обязанностей судьи. Чха О Рым - новичок в деле правосудия, но у нее есть конкретные принципы работы. Девушка считает, что нужно обращать внимание не только на букву закона, но и на ситуацию - в каждом случае разбираться отдельно. Справедливость должна торжествовать даже в суде, поэтому не стоит забывать, что судья - тоже человек, который может чувствовать. Такой подход далеко не всем по душе, но О Рым ничего не может с этим поделать и часто сочувствует подсудимым. Не всегда те, кто оказался на скамье подсудимых, действительно виновны в случившемся.
Только закон
Главная героиня пересекается с Им Ба Рыном, который только окончил престижную юридическую школу и тоже взялся за работу. В карьере он не слишком заинтересован да и вообще относится ко всему с равнодушием. Тем не менее парень считает, что закон нужно выполнять строго, не отвлекаясь на чувства и эмоции. Ему кажется, что проявление эмоций - это нарушение закона, поэтому методы работы О Рым считает абсурдными. В онлайн сериале Мисс Хаммурапи молодым судьям придется встретиться и даже столкнуться лбами, выполняя свою работу.
Профессиональный рост
Далеко не каждый судья спешит защищать справедливость и пропускать работу через собственное сердце. Чха О Рым наоборот не может иначе, она всегда входит в ситуацию и старается понять, как все было на самом деле. Даже те, кого обвиняют в совершении преступления, порой остаются людьми, которым нужна поддержка. В суде случаются и другие истории, когда преступника хотят защитить, сократив ему срок и упростив наказание. Сериал Мисс Хаммурапи рассказывает о работе девушки и ее успехах на посту судьи. Благодаря особому подходу молодая специалистка добивается уважения, развивается и строит карьеру.
Роли озвучивали: Olyushka, Ruben Mendez
За перевод благодарим: Фансаб-группу Shadows
озвучка группы ВК: Храм Дорам ТВ

Отличия

Нет раздач
Неотключаемые субтитры: Без хардсаба
Русские субтитры: Нет
Оригинальная аудиодорожка: Нет
Качество видео: HDTVRip
Разрешение: 720p
Видео кодек: H264
Формат: mp4
Видео: AVC, 1280х720, ~2000 Кбит/с, 29,970 fps
Аудио: AAC, 192 Kbps, 2 ch, 44.1 KHz, Язык Русский (в составе контейнера)

MI

Общее
Полное имя : U:\[Корейские сериалы]\000\Мисс Хаммурапи [Храм Дорам_ТВ]\Мисс Хаммурапи 04_720.mp4
Формат : MPEG-4
Профиль формата : Base Media
Идентификатор кодека : isom (isom/iso2/avc1/mp41)
Размер файла : 1,04 Гбайт
Продолжительность : 1 ч. 8 м.
Общий поток : 2171 Кбит/сек
Программа кодирования : Lavf57.83.100
Видео
Идентификатор : 1
Формат : AVC
Формат/Информация : Advanced Video Codec
Профиль формата : High@L3.1
Настройки формата : CABAC / 4 Ref Frames
Параметр CABAC формата : Да
Параметр RefFrames формата : 4 кадра
Идентификатор кодека : avc1
Идентификатор кодека/Информация : Advanced Video Coding
Продолжительность : 1 ч. 8 м.
Битрейт : 1980 Кбит/сек
Ширина : 1280 пикселей
Высота : 720 пикселей
Соотношение сторон : 16:9
Режим частоты кадров : Постоянный
Частота кадров : 29,970 (30000/1001) кадров/сек
Цветовое пространство : YUV
Субдискретизация насыщенности : 4:2:0
Битовая глубина : 8 бит
Тип развёртки : Прогрессивная
Бит/(Пиксели*Кадры) : 0.072
Размер потока : 965 Мбайт (91%)
Библиотека кодирования : x264 core 148
Настройки программы : cabac=1 / ref=2 / deblock=1:0:0 / analyse=0x3:0x113 / me=hex / subme=6 / psy=1 / psy_rd=1.00:0.00 / mixed_ref=1 / me_range=16 / chroma_me=1 / trellis=1 / 8x8dct=1 / cqm=0 / deadzone=21,11 / fast_pskip=1 / chroma_qp_offset=-2 / threads=6 / lookahead_threads=1 / sliced_threads=0 / nr=0 / decimate=1 / interlaced=0 / bluray_compat=0 / constrained_intra=0 / bframes=3 / b_pyramid=2 / b_adapt=1 / b_bias=0 / direct=1 / weightb=1 / open_gop=0 / weightp=1 / keyint=250 / keyint_min=25 / scenecut=40 / intra_refresh=0 / rc_lookahead=30 / rc=2pass / mbtree=1 / bitrate=1980 / ratetol=1.0 / qcomp=0.60 / qpmin=0 / qpmax=69 / qpstep=4 / cplxblur=20.0 / qblur=0.5 / vbv_maxrate=1980 / vbv_bufsize=3960 / nal_hrd=none / filler=0 / ip_ratio=1.40 / aq=1:1.00
Аудио
Идентификатор : 2
Формат : AAC
Формат/Информация : Advanced Audio Codec
Профиль формата : LC
Идентификатор кодека : mp4a-40-2
Продолжительность : 1 ч. 8 м.
Вид битрейта : Постоянный
Битрейт : 192 Кбит/сек
Каналы : 2 канала
Расположение каналов : Front: L R
Частота : 44,1 КГц
Частота кадров : 43,066 кадра/сек (1024 SPF)
Метод сжатия : С потерями
Размер потока : 94,0 Мбайт (9%)
Default : Да
AlternateGroup/String : 1
Вы не можете начинать темы
Вы не можете отвечать на сообщения
Вы не можете редактировать свои сообщения
Вы не можете удалять свои сообщения
Вы не можете голосовать в опросах
Вы не можете прикреплять файлы к сообщениям
Вы можете скачивать файлы
!ВНИМАНИЕ!

Сайт не предоставляет электронные версии произведений, а занимается лишь коллекционированием и каталогизацией ссылок, присылаемых и публикуемых на форуме нашими читателями. Если вы являетесь правообладателем какого-либо представленного материала и не желаете, чтобы ссылка на него находилась в нашем каталоге, свяжитесь с нами, и мы незамедлительно удалим ее. Файлы для обмена на трекере предоставлены пользователями сайта, и администрация не несет ответственности за их содержание. Просьба не заливать файлы, защищенные авторскими правами, а также файлы нелегального содержания!

Искали программы, игры, дополнения, музыка mp3, аниме, аудио книги, журналы? Добро пожаловать на свободный торрент трекер Torrents, у нас можно скачать бесплатно, без смс и регистрации и прочих ограничений лучшие, отборные сборки программ, игр. Скачать торрентом не составит труда даже не опытному пользователю. Раздачи ежедневно обновляются, только лучшие и качественные раздачи, подробные описания и скриншоты. Огромная коллекция программ для работы со звуком, графикой, дизайном, а так же множество плагинов и инструментов к ним с подробной инструкцией и рекомендациями. Прошивки для навигаторов, карты. Разнообразные игры, для Windows, Linux. В коллекцие есть и старые игры любых жанров, Rpg, Action, Shooter, strategy Множество дополнений, модификаций, сценариев для популярных игр в жанре экш, рпг, гонки, стратегии, логические игры. Множество аддонов и сценариев для Microsoft Flight Simulator Большая коллекция книг, учебников. Если нет возможности купить печатное издание - смело скачивайте цифровую версию книги или, быть может, журнала. Не любите читать - можно загрузить бесплатно аудикнигу. Для веб дизайнеров и программистов так же найдется множество специализированного софта, таких как: редакторы с подсветкой, среды программирования, компоненты, системы управления базами данных, разнообразные скрипты и шаблоны. Не так давно у нас появился материал для автолюбителей и владельцев мото - оригинальные и неоригинальные каталоги запчастей, книги и журналы по ремонту и обслуживанию, видеоуроки, статьи по чип тюнингу, прошивкам. Процедура получения контента элементарная, достаточно просто скачать торрент файл и добавить его в загрузку в вашем торрент клиенте. Если у вас нет специального торрент клиента, вы можете его скачать у нас.