(Ambient Dub, UK Bass, Glitch Hop, Future Garage) [CD] Young Echo - Nexus - 2013, FLAC (tracks+.cue), lossless 

Цитировать
Young Echo
"Nexus"

Страна группы – Bristol / City of Bristol / UK
Жанры – Ambient Dub / UK Bass / Glitch Hop
Label – Ramp Recordings (UK) / RAMP055 / 2013
Аудио – FLAC / tracks+.cue / lossless
Источник диска – Λpollo.rip
PRODUCERS –
El Kid / Ishan Sound / Jabu / Kahn / Killing Sound / Rei / Vessel
TRACK LISTING (00:57:39)
01. Radial Sheaves (05:42)
02. Jupiter Rise (03:20)
03. Voices on the Water (03:51)
04. Crowd Sacred (06:02)
05. Blood Sugar (04:05)
06. Earth & Dust (Version) (01:10)
07. Untitled No. 7 (05:05)
08. Nexus (05:37)
09. Flying (02:30)
10. My Child, My Chain (04:36)
11. Umoja (05:47)
12. Slow Jam (02:01)
13. Ephemeral, Sometimes/Eternities, Never (06:05)
14. Untitled (01:54)

l o g

Exact Audio Copy V1.0 beta 3 from 29. August 2011
EAC extraction logfile from 17. January 2014, 16:34
Young Echo / Nexus
Used drive : ASUS DRW-24B3ST Adapter: 2 ID: 1
Read mode : SecureUtilize accurate stream : YesDefeat audio cache : YesMake use of C2 pointers : No
Read offset correction : 6Overread into Lead-In and Lead-Out : NoFill up missing offset samples with silence : YesDelete leading and trailing silent blocks : NoNull samples used in CRC calculations : YesUsed interface : Native Win32 interface for Win NT & 2000Gap handling : Appended to previous track
Used output format : User Defined EncoderSelected bitrate : 1024 kBit/sQuality : HighAdd ID3 tag : NoCommand line compressor : C:\Program Files (x86)\Exact Audio Copy\Flac\flac.exeAdditional command line options : -8 -V -T "ARTIST=%artist%" -T "TITLE=%title%" -T "ALBUM=%albumtitle%" -T "DATE=%year%" -T "TRACKNUMBER=%tracknr%" -T "GENRE=%genre%" -T "PERFORMER=%albuminterpret%" -T "COMPOSER=%composer%" %haslyrics%-tag-from-file=LYRICS="%lyricsfile%"%haslyrics% -T "ALBUMARTIST=%albumartist%" -T "DISCNUMBER=%cdnumber%" -T "TOTALDISCS=%totalcds%" -T "TOTALTRACKS=%numtracks%" -T "COMMENT=%comment%" %source% -o %dest%
TOC of the extracted CD
Track | Start | Length | Start sector | End sector --------------------------------------------------------- 1 | 0:00.00 | 5:41.58 | 0 | 25632 2 | 5:41.58 | 3:19.73 | 25633 | 40630 3 | 9:01.56 | 3:50.59 | 40631 | 57939 4 | 12:52.40 | 6:01.02 | 57940 | 85016 5 | 18:53.42 | 4:05.00 | 85017 | 103391 6 | 22:58.42 | 1:09.28 | 103392 | 108594 7 | 24:07.70 | 5:04.37 | 108595 | 131431 8 | 29:12.32 | 5:36.45 | 131432 | 156676 9 | 34:49.02 | 2:29.38 | 156677 | 167889 10 | 37:18.40 | 4:35.08 | 167890 | 188522 11 | 41:53.48 | 5:46.33 | 188523 | 214505 12 | 47:40.06 | 2:00.26 | 214506 | 223531 13 | 49:40.32 | 6:04.18 | 223532 | 250849 14 | 55:44.50 | 1:53.66 | 250850 | 259390
Track 1
Filename C:\EACrips\01 Radial Sheaves.wav
Pre-gap length 0:00:02.00
Peak level 98.8 % Extraction speed 3.6 X Track quality 100.0 % Test CRC FB0FDFA9 Copy CRC FB0FDFA9 Accurately ripped (confidence 2) [35559465] (AR v2) Copy OK
Track 2
Filename C:\EACrips\02 Jupiter Rise.wav
Peak level 86.0 % Extraction speed 3.8 X Track quality 100.0 % Test CRC 53A87280 Copy CRC 53A87280 Accurately ripped (confidence 2) [1061D30D] (AR v2) Copy OK
Track 3
Filename C:\EACrips\03 Voices on the Water.wav
Peak level 98.8 % Extraction speed 4.1 X Track quality 100.0 % Test CRC 4AC762C9 Copy CRC 4AC762C9 Accurately ripped (confidence 2) [B061E6BD] (AR v2) Copy OK
Track 4
Filename C:\EACrips\04 Crowd Sacred.wav
Peak level 98.8 % Extraction speed 4.7 X Track quality 100.0 % Test CRC 92D7BFBF Copy CRC 92D7BFBF Accurately ripped (confidence 2) [980F680C] (AR v2) Copy OK
Track 5
Filename C:\EACrips\05 Blood Sugar.wav
Peak level 98.8 % Extraction speed 3.9 X Track quality 99.9 % Test CRC 0F76ECA2 Copy CRC 0F76ECA2 Accurately ripped (confidence 2) [BFEFD933] (AR v2) Copy OK
Track 6
Filename C:\EACrips\06 Earth & Dust (version).wav
Peak level 98.8 % Extraction speed 2.2 X Track quality 99.8 % Test CRC CDA0E075 Copy CRC CDA0E075 Accurately ripped (confidence 2) [246E88BA] (AR v2) Copy OK
Track 7
Filename C:\EACrips\07 Untitled No. 7.wav
Peak level 98.8 % Extraction speed 5.2 X Track quality 100.0 % Test CRC 3D3FBDA1 Copy CRC 3D3FBDA1 Accurately ripped (confidence 2) [11BB02D5] (AR v2) Copy OK
Track 8
Filename C:\EACrips\08 Nexus.wav
Peak level 98.8 % Extraction speed 5.7 X Track quality 100.0 % Test CRC BA70E4E2 Copy CRC BA70E4E2 Accurately ripped (confidence 2) [3989D074] (AR v2) Copy OK
Track 9
Filename C:\EACrips\09 Flying.wav
Peak level 98.8 % Extraction speed 5.1 X Track quality 100.0 % Test CRC 6C2F87C0 Copy CRC 6C2F87C0 Accurately ripped (confidence 2) [491578B4] (AR v2) Copy OK
Track 10
Filename C:\EACrips\10 My Child, My Chain.wav
Peak level 98.8 % Extraction speed 5.8 X Track quality 100.0 % Test CRC 26848D8A Copy CRC 26848D8A Accurately ripped (confidence 2) [3CA0074C] (AR v2) Copy OK
Track 11
Filename C:\EACrips\11 Umoja.wav
Peak level 98.8 % Extraction speed 5.7 X Track quality 100.0 % Test CRC 95EE8801 Copy CRC 95EE8801 Accurately ripped (confidence 2) [482DD98C] (AR v2) Copy OK
Track 12
Filename C:\EACrips\12 Slow Jam.wav
Peak level 98.8 % Extraction speed 4.6 X Track quality 100.0 % Test CRC AD1EC672 Copy CRC AD1EC672 Accurately ripped (confidence 2) [35DBBB67] (AR v2) Copy OK
Track 13
Filename C:\EACrips\13 Eternities Never,Ephemeral, Sometimes.wav
Peak level 98.8 % Extraction speed 5.4 X Track quality 100.0 % Test CRC 4350A4A6 Copy CRC 4350A4A6 Accurately ripped (confidence 2) [663A1A35] (AR v2) Copy OK
Track 14
Filename C:\EACrips\14 [Untitled].wav
Peak level 98.8 % Extraction speed 3.8 X Track quality 99.9 % Test CRC 98FF9D37 Copy CRC 98FF9D37 Accurately ripped (confidence 2) [213A860A] (AR v2) Copy OK
All tracks accurately ripped
No errors occurred
End of status report
---- CUETools DB Plugin V2.1.4
[CTDB TOCID: CjZOMGButuFJRFj6mxHnQuYVcSo-] foundSubmit result: CjZOMGButuFJRFj6mxHnQuYVcSo- has been confirmedTrack | CTDB Status 1 | (2/2) Accurately ripped 2 | (2/2) Accurately ripped 3 | (2/2) Accurately ripped 4 | (2/2) Accurately ripped 5 | (2/2) Accurately ripped 6 | (2/2) Accurately ripped 7 | (2/2) Accurately ripped 8 | (2/2) Accurately ripped 9 | (2/2) Accurately ripped 10 | (2/2) Accurately ripped 11 | (2/2) Accurately ripped 12 | (2/2) Accurately ripped 13 | (2/2) Accurately ripped 14 | (2/2) Accurately ripped
==== Log checksum 9A70A44C4CFC040E3A45B6A1DB5A8A17B2B00A2FB2F416B339839F8F3D11E500 ====

. c u e

REM GENRE "Ambient Dub"REM DATE 2013REM DISCID BB0D820EREM COMMENT "ExactAudioCopy v1.0b3"PERFORMER "Young Echo"TITLE "Nexus"FILE "01. Radial Sheaves.wav" WAVE  TRACK 01 AUDIO    TITLE "Radial Sheaves"    PERFORMER "Young Echo"    INDEX 01 00:00:00FILE "02. Jupiter Rise.wav" WAVE  TRACK 02 AUDIO    TITLE "Jupiter Rise"    PERFORMER "Young Echo"    INDEX 01 00:00:00FILE "03. Voices on the Water.wav" WAVE  TRACK 03 AUDIO    TITLE "Voices on the Water"    PERFORMER "Young Echo"    INDEX 01 00:00:00FILE "04. Crowd Sacred.wav" WAVE  TRACK 04 AUDIO    TITLE "Crowd Sacred"    PERFORMER "Young Echo"    INDEX 01 00:00:00FILE "05. Blood Sugar.wav" WAVE  TRACK 05 AUDIO    TITLE "Blood Sugar"    PERFORMER "Young Echo"    INDEX 01 00:00:00FILE "06. Earth & Dust (Version).wav" WAVE  TRACK 06 AUDIO    TITLE "Earth & Dust (Version)"    PERFORMER "Young Echo"    INDEX 01 00:00:00FILE "07. Untitled No. 7.wav" WAVE  TRACK 07 AUDIO    TITLE "Untitled No. 7"    PERFORMER "Young Echo"    INDEX 01 00:00:00FILE "08. Nexus.wav" WAVE  TRACK 08 AUDIO    TITLE "Nexus"    PERFORMER "Young Echo"    INDEX 01 00:00:00FILE "09. Flying.wav" WAVE  TRACK 09 AUDIO    TITLE "Flying"    PERFORMER "Young Echo"    INDEX 01 00:00:00FILE "10. My Child, My Chain.wav" WAVE  TRACK 10 AUDIO    TITLE "My Child, My Chain"    PERFORMER "Young Echo"    INDEX 01 00:00:00FILE "11. Umoja.wav" WAVE  TRACK 11 AUDIO    TITLE "Umoja"    PERFORMER "Young Echo"    INDEX 01 00:00:00FILE "12. Slow Jam.wav" WAVE  TRACK 12 AUDIO    TITLE "Slow Jam"    PERFORMER "Young Echo"    INDEX 01 00:00:00FILE "13. Ephemeral, Sometimes-Eternities, Never.wav" WAVE  TRACK 13 AUDIO    TITLE "Ephemeral, Sometimes/Eternities, Never"    PERFORMER "Young Echo"    INDEX 01 00:00:00FILE "14. Untitled.wav" WAVE  TRACK 14 AUDIO    TITLE "Untitled"    PERFORMER "Young Echo"    INDEX 01 00:00:00
Вы не можете начинать темы
Вы не можете отвечать на сообщения
Вы не можете редактировать свои сообщения
Вы не можете удалять свои сообщения
Вы не можете голосовать в опросах
Вы не можете прикреплять файлы к сообщениям
Вы можете скачивать файлы
!ВНИМАНИЕ!

Сайт не предоставляет электронные версии произведений, а занимается лишь коллекционированием и каталогизацией ссылок, присылаемых и публикуемых на форуме нашими читателями. Если вы являетесь правообладателем какого-либо представленного материала и не желаете, чтобы ссылка на него находилась в нашем каталоге, свяжитесь с нами, и мы незамедлительно удалим ее. Файлы для обмена на трекере предоставлены пользователями сайта, и администрация не несет ответственности за их содержание. Просьба не заливать файлы, защищенные авторскими правами, а также файлы нелегального содержания!

Искали программы, игры, дополнения, музыка mp3, аниме, аудио книги, журналы? Добро пожаловать на свободный торрент трекер Torrents, у нас можно скачать бесплатно, без смс и регистрации и прочих ограничений лучшие, отборные сборки программ, игр. Скачать торрентом не составит труда даже не опытному пользователю. Раздачи ежедневно обновляются, только лучшие и качественные раздачи, подробные описания и скриншоты. Огромная коллекция программ для работы со звуком, графикой, дизайном, а так же множество плагинов и инструментов к ним с подробной инструкцией и рекомендациями. Прошивки для навигаторов, карты. Разнообразные игры, для Windows, Linux. В коллекцие есть и старые игры любых жанров, Rpg, Action, Shooter, strategy Множество дополнений, модификаций, сценариев для популярных игр в жанре экш, рпг, гонки, стратегии, логические игры. Множество аддонов и сценариев для Microsoft Flight Simulator Большая коллекция книг, учебников. Если нет возможности купить печатное издание - смело скачивайте цифровую версию книги или, быть может, журнала. Не любите читать - можно загрузить бесплатно аудикнигу. Для веб дизайнеров и программистов так же найдется множество специализированного софта, таких как: редакторы с подсветкой, среды программирования, компоненты, системы управления базами данных, разнообразные скрипты и шаблоны. Не так давно у нас появился материал для автолюбителей и владельцев мото - оригинальные и неоригинальные каталоги запчастей, книги и журналы по ремонту и обслуживанию, видеоуроки, статьи по чип тюнингу, прошивкам. Процедура получения контента элементарная, достаточно просто скачать торрент файл и добавить его в загрузку в вашем торрент клиенте. Если у вас нет специального торрент клиента, вы можете его скачать у нас.