(DubStep, Dark Ambient, Break-Beat, Drum´n ´Bass) Načeva (Naceva) - Fontanela - 2001, FLAC (tracks+.cue), lossless 

Цитировать
Načeva- Fontanela
Жанр: dubstep, dark ambient, break-beat, drum´n ´bass
Год выпуска диска: 2001
Производитель диска: Czech Republic
Аудио кодек: FLAC
Тип рипа: tracks+.cue
Битрейт аудио: lossless
Официальный сайт: naceva.eu
Трэклист:
1 Světlo / Light (0:28)
2 Kolotoč / Whirligig (5:03)
3 Stromy / Trees (4:56)
4 Velký ruce / Big Hands (6:43)
5 Moře / See (5:11)
6 Síla zvyku / Force of Habit (5:08)
7 Sen / Dream (2:14)
8 Dech / Breath (3:05)
9 Maun (7:39)
10 Fontanela (5:04)
11 Jaro / Spring (6:59)
12 Světlo se pohnulo / The Light Moved (7:15)

Отчет EAC

Exact Audio Copy V0.99 prebeta 5 from 4. May 2009
EAC extraction logfile from 17. May 2009, 14:51
Načeva / Fontanela
Used drive : HL-DT-STDVDRAM GSA-4163B Adapter: 0 ID: 0
Read mode : SecureUtilize accurate stream : YesDefeat audio cache : YesMake use of C2 pointers : No
Read offset correction : 667Overread into Lead-In and Lead-Out : NoFill up missing offset samples with silence : YesDelete leading and trailing silent blocks : NoNull samples used in CRC calculations : YesUsed interface : Native Win32 interface for Win NT & 2000Gap handling : Appended to previous track
Used output format : User Defined EncoderSelected bitrate : 768 kBit/sQuality : HighAdd ID3 tag : NoCommand line compressor : C:\Program Files\FLAC\flac.exeAdditional command line options : -V -8 -T "artist=%a" -T "title=%t" -T "album=%g" -T "date=%y" -T "tracknumber=%n" -T "genre=%m" %s
TOC of the extracted CD
Track | Start | Length | Start sector | End sector --------------------------------------------------------- 1 | 0:00.00 | 0:28.21 | 0 | 2120 2 | 0:28.21 | 5:05.10 | 2121 | 25005 3 | 5:33.31 | 4:57.60 | 25006 | 47340 4 | 10:31.16 | 6:42.69 | 47341 | 77559 5 | 17:14.10 | 5:14.00 | 77560 | 101109 6 | 22:28.10 | 5:08.25 | 101110 | 124234 7 | 27:36.35 | 2:19.49 | 124235 | 134708 8 | 29:56.09 | 3:05.58 | 134709 | 148641 9 | 33:01.67 | 7:39.24 | 148642 | 183090 10 | 40:41.16 | 5:04.14 | 183091 | 205904 11 | 45:45.30 | 7:00.34 | 205905 | 237438 12 | 52:45.64 | 7:15.26 | 237439 | 270089
Track 1
Filename H:\Načeva - 2001 - Fontanela\01 - 01 Světlo.wav
Pre-gap length 0:00:02.00
Peak level 48.4 % Track quality 100.0 % Test CRC FF35D837 Copy CRC FF35D837 Track not present in AccurateRip database Copy OK
Track 2
Filename H:\Načeva - 2001 - Fontanela\02 - 02 Kolotoč.wav
Pre-gap length 0:00:03.65
Peak level 96.3 % Track quality 100.0 % Test CRC 04DDDD6D Copy CRC 04DDDD6D Track not present in AccurateRip database Copy OK
Track 3
Filename H:\Načeva - 2001 - Fontanela\03 - 03 Stromy.wav
Pre-gap length 0:00:03.65
Peak level 98.5 % Track quality 100.0 % Test CRC ACAC6C5F Copy CRC ACAC6C5F Track not present in AccurateRip database Copy OK
Track 4
Filename H:\Načeva - 2001 - Fontanela\04 - 04 Velký Ruce.wav
Pre-gap length 0:00:03.65
Peak level 96.3 % Track quality 100.0 % Test CRC 24A23FC8 Copy CRC 24A23FC8 Track not present in AccurateRip database Copy OK
Track 5
Filename H:\Načeva - 2001 - Fontanela\05 - 05 Moře.wav
Pre-gap length 0:00:03.65
Peak level 96.3 % Track quality 100.0 % Test CRC 6734482A Copy CRC 6734482A Track not present in AccurateRip database Copy OK
Track 6
Filename H:\Načeva - 2001 - Fontanela\06 - 06 Síla Zvyku.wav
Pre-gap length 0:00:03.65
Peak level 96.2 % Track quality 100.0 % Test CRC AA04265A Copy CRC AA04265A Track not present in AccurateRip database Copy OK
Track 7
Filename H:\Načeva - 2001 - Fontanela\07 - 07 Sen.wav
Pre-gap length 0:00:03.65
Peak level 96.2 % Track quality 100.0 % Test CRC 9716798F Copy CRC 9716798F Track not present in AccurateRip database Copy OK
Track 8
Filename H:\Načeva - 2001 - Fontanela\08 - 08 Dech.wav
Pre-gap length 0:00:03.65
Peak level 96.2 % Track quality 100.0 % Test CRC 2CC24A17 Copy CRC 2CC24A17 Track not present in AccurateRip database Copy OK
Track 9
Filename H:\Načeva - 2001 - Fontanela\09 - 09 Maun.wav
Pre-gap length 0:00:03.65
Peak level 96.3 % Track quality 100.0 % Test CRC 4095B908 Copy CRC 4095B908 Track not present in AccurateRip database Copy OK
Track 10
Filename H:\Načeva - 2001 - Fontanela\10 - 10 Fontanela.wav
Pre-gap length 0:00:03.65
Peak level 85.7 % Track quality 99.9 % Test CRC BD5F7A58 Copy CRC BD5F7A58 Track not present in AccurateRip database Copy OK
Track 11
Filename H:\Načeva - 2001 - Fontanela\11 - 11 Jaro.wav
Pre-gap length 0:00:03.65
Peak level 85.9 % Track quality 100.0 % Test CRC 12DF3CF9 Copy CRC 12DF3CF9 Track not present in AccurateRip database Copy OK
Track 12
Filename H:\Načeva - 2001 - Fontanela\12 - 12 Světlo Se Pohnulo.wav
Pre-gap length 0:00:03.65
Peak level 96.2 % Track quality 99.9 % Test CRC 6101AA2D Copy CRC 6101AA2D Track not present in AccurateRip database Copy OK
None of the tracks are present in the AccurateRip database
No errors occurred
End of status report

Содержание индексной карты (.CUE)

REM GENRE AmbientREM DATE 2001REM DISCID A30E110CREM COMMENT "ExactAudioCopy v0.99pb5"FILE "Načeva - 2001 - Fontanela\01 - 01 Světlo.wav" WAVE  TRACK 01 AUDIO    INDEX 01 00:00:00  TRACK 02 AUDIO    INDEX 00 00:24:31FILE "Načeva - 2001 - Fontanela\02 - 02 Kolotoč.wav" WAVE    INDEX 01 00:00:00  TRACK 03 AUDIO    INDEX 00 05:01:20FILE "Načeva - 2001 - Fontanela\03 - 03 Stromy.wav" WAVE    INDEX 01 00:00:00  TRACK 04 AUDIO    INDEX 00 04:53:70FILE "Načeva - 2001 - Fontanela\04 - 04 Velký Ruce.wav" WAVE    INDEX 01 00:00:00  TRACK 05 AUDIO    INDEX 00 06:39:04FILE "Načeva - 2001 - Fontanela\05 - 05 Moře.wav" WAVE    INDEX 01 00:00:00  TRACK 06 AUDIO    INDEX 00 05:10:10FILE "Načeva - 2001 - Fontanela\06 - 06 Síla Zvyku.wav" WAVE    INDEX 01 00:00:00  TRACK 07 AUDIO    INDEX 00 05:04:35FILE "Načeva - 2001 - Fontanela\07 - 07 Sen.wav" WAVE    INDEX 01 00:00:00  TRACK 08 AUDIO    INDEX 00 02:15:59FILE "Načeva - 2001 - Fontanela\08 - 08 Dech.wav" WAVE    INDEX 01 00:00:00  TRACK 09 AUDIO    INDEX 00 03:01:68FILE "Načeva - 2001 - Fontanela\09 - 09 Maun.wav" WAVE    INDEX 01 00:00:00  TRACK 10 AUDIO    INDEX 00 07:35:34FILE "Načeva - 2001 - Fontanela\10 - 10 Fontanela.wav" WAVE    INDEX 01 00:00:00  TRACK 11 AUDIO    INDEX 00 05:00:24FILE "Načeva - 2001 - Fontanela\11 - 11 Jaro.wav" WAVE    INDEX 01 00:00:00  TRACK 12 AUDIO    INDEX 00 06:56:44FILE "Načeva - 2001 - Fontanela\12 - 12 Světlo Se Pohnulo.wav" WAVE    INDEX 01 00:00:00

Artist Info

Monika Načeva (born 27th June 1966) is Czech singer and actress (A-studio, Ha-divadlo, Sklep). As a singer, Načeva is recognisable by by her distinctive voice, style and strong lyrics. She has been involved in music since 1992 with the group Něžná žláza(Delicate Gland). Her first album with the lyrics of the famous Czech writer Jáchym Topol came out in 1994 under the name Načeva. The group performed live with various lineup changes until 1997. Later on, Načeva collaborated with several artists like Jan P. Muchow, DJ GUS, Michal Dittrich etc. Recently, she has released the album Mami and she is performing the concerts with Michal Pavlíček and DJ Five.

* Možnosti tu sou ... - 1994 (There Is a Chance)
* Nebe je rudý - 1996 (The Sky Is Red)
* Mimoid - 1998
* Fontanela - 2001
* Mami - 2007
Coil, Beastie Boys, PTV, Pushy, Underground Resistance, D-Styles, DJ Krush, Už jsme doma, Mad Professor, Patti Smith, Lee Perry, Jarboe, Lazlo Lageezer, Mixmaster Mike, Q Bert, Lisa Gerrard, Tarkovsky, Jachym Topol, Krishnamurti, Stanislav Grof, Mejla Hlavsa, Terry Gilliam/Brazil, Scorn, Laura A. Huxley, Franz Kafka, my love Žárovka(„Light Bulb“).
Вы не можете начинать темы
Вы не можете отвечать на сообщения
Вы не можете редактировать свои сообщения
Вы не можете удалять свои сообщения
Вы не можете голосовать в опросах
Вы не можете прикреплять файлы к сообщениям
Вы можете скачивать файлы
!ВНИМАНИЕ!

Сайт не предоставляет электронные версии произведений, а занимается лишь коллекционированием и каталогизацией ссылок, присылаемых и публикуемых на форуме нашими читателями. Если вы являетесь правообладателем какого-либо представленного материала и не желаете, чтобы ссылка на него находилась в нашем каталоге, свяжитесь с нами, и мы незамедлительно удалим ее. Файлы для обмена на трекере предоставлены пользователями сайта, и администрация не несет ответственности за их содержание. Просьба не заливать файлы, защищенные авторскими правами, а также файлы нелегального содержания!

Искали программы, игры, дополнения, музыка mp3, аниме, аудио книги, журналы? Добро пожаловать на свободный торрент трекер Torrents, у нас можно скачать бесплатно, без смс и регистрации и прочих ограничений лучшие, отборные сборки программ, игр. Скачать торрентом не составит труда даже не опытному пользователю. Раздачи ежедневно обновляются, только лучшие и качественные раздачи, подробные описания и скриншоты. Огромная коллекция программ для работы со звуком, графикой, дизайном, а так же множество плагинов и инструментов к ним с подробной инструкцией и рекомендациями. Прошивки для навигаторов, карты. Разнообразные игры, для Windows, Linux. В коллекцие есть и старые игры любых жанров, Rpg, Action, Shooter, strategy Множество дополнений, модификаций, сценариев для популярных игр в жанре экш, рпг, гонки, стратегии, логические игры. Множество аддонов и сценариев для Microsoft Flight Simulator Большая коллекция книг, учебников. Если нет возможности купить печатное издание - смело скачивайте цифровую версию книги или, быть может, журнала. Не любите читать - можно загрузить бесплатно аудикнигу. Для веб дизайнеров и программистов так же найдется множество специализированного софта, таких как: редакторы с подсветкой, среды программирования, компоненты, системы управления базами данных, разнообразные скрипты и шаблоны. Не так давно у нас появился материал для автолюбителей и владельцев мото - оригинальные и неоригинальные каталоги запчастей, книги и журналы по ремонту и обслуживанию, видеоуроки, статьи по чип тюнингу, прошивкам. Процедура получения контента элементарная, достаточно просто скачать торрент файл и добавить его в загрузку в вашем торрент клиенте. Если у вас нет специального торрент клиента, вы можете его скачать у нас.