(Techno, Rave, Progressive) VA - The Best Of Rave And Progressive 99 - 1999, FLAC (image+.cue), lossless 

Цитировать
The Best Of Rave And Progressive 99
Жанр: Techno, Rave, Progressive
Носитель: CD
Страна-производитель диска (релиза): N/A
Год издания: 1999
Издатель (лейбл): Unofficial Release
Аудиокодек: FLAC (*.flac)
Тип рипа: image+.cue
Битрейт аудио: lossless
Продолжительность: 01:12:08
Источник (релизер): Собственный рип
Наличие сканов в содержимом раздачи: да
Треклист:
1. ATB - Don't Stop (C.L.U.B.B. MIX) 5:52
2. Mo-Do - Einz, Zwei, Polizei ('99 Remix-Radio Version) 3:48
3. Sash! - Colour The World (ATB Remix) 5:53
4. DJ Sammy feat. Carisma - In 2 Iternity (Dop-Mix) 6:05
5. Floorfilla - Anthem #1 (Take 01 Radio edit) 5:47
6. Da Bros - What Is Music /BA BA BA/ (Deep mix) 5:15
7. Mike Koglin - Silence (John B. Norman Mix) 6:00
8. DJ's Unlimited - Born To Be A Dee Jay (Radio DJ's Mix) 3:31
9. Bacon Popper - Rejoice In Love (Aohh! Mix) 3:57
10. Sans Plomb - Everybody Says Party (Krio Genesis Radio Mix) 4:07
11. Push - Universal Nation /The real Anthem/ (dj jamX & DeLeons"Dumonde" Radio Mix) 3:05
12. K-Club pres. Ines - Deeper /Live Your Fantasy/ (Moaning Radio Mix) 3:49
13. DJ Bart - Are You Ready? (Radio Edit) 4:18
14. DJ Starfighter - Mayday (Radio Edit) 3:36
15. Dedicato - Dedicato (Vocal Single Mix) 3:45
16. DJ Don pres. The Party Zone - Keep On Pumpin' On (Radio Edit) 3:20

Лог создания рипа

Exact Audio Copy V0.99 prebeta 4 from 23. January 2008
Отчёт EAC об извлечении, выполненном 7. октября 2018, 1:24
Various Artist / The best of rave and progressive 99
Дисковод: ASUS SCB-2424A Adapter: 0 ID: 1
Режим чтения : ДостоверностьИспользование точного потока : ДаОтключение кэша аудио : ДаИспользование указателей C2 : Нет
Коррекция смещения при чтении : -582Способность читать области Lead-in и Lead-out : НетЗаполнение пропущенных сэмплов тишиной : ДаУдаление блоков с тишиной в начале и конце : НетПри вычислениях CRC использовались нулевые сэмплы : ДаИнтерфейс : Встроенный Win32-интерфейс для Win NT/2000
Выходной формат : Внутренние WAV-операцииФормат сэмплов : 44.100 Гц; 16 бит; стерео
TOC извлечённого CD
Трек | Старт | Длительность | Начальный сектор | Конечный сектор --------------------------------------------------------------------- 1 | 0:00.00 | 5:52.52 | 0 | 26451 2 | 5:52.52 | 3:48.45 | 26452 | 43596 3 | 9:41.22 | 5:53.08 | 43597 | 70079 4 | 15:34.30 | 6:05.47 | 70080 | 97501 5 | 21:40.02 | 5:47.33 | 97502 | 123559 6 | 27:27.35 | 5:15.62 | 123560 | 147246 7 | 32:43.22 | 6:00.68 | 147247 | 174314 8 | 38:44.15 | 3:31.47 | 174315 | 190186 9 | 42:15.62 | 3:57.40 | 190187 | 208001 10 | 46:13.27 | 4:07.43 | 208002 | 226569 11 | 50:20.70 | 3:05.37 | 226570 | 240481 12 | 53:26.32 | 3:49.60 | 240482 | 257716 13 | 57:16.17 | 4:18.58 | 257717 | 277124 14 | 61:35.00 | 3:36.35 | 277125 | 293359 15 | 65:11.35 | 3:45.25 | 293360 | 310259 16 | 68:56.60 | 3:20.67 | 310260 | 325326
Характеристики диапазона извлечения и сообщения об ошибках
Выбранный диапазон
Имя файла D:\VA - The Best Of Rave And Progressive 99\Various Artist - The best of rave and progressive 99.wav
Пиковый уровень 99.9 % Качество диапазона 99.9 % CRC теста 22536132 CRC копии 22536132 Копирование... OK
Ошибок не произошло

Содержание индексной карты (.CUE)

REM GENRE TechnoREM DATE 1999REM DISCID F110F110REM COMMENT "ExactAudioCopy v0.99pb4"PERFORMER "Various"TITLE " The Best Of Rave And Progressive 99"FILE "Various Artist - The best of rave and progressive 99.flac" WAVE  TRACK 01 AUDIO    TITLE "Don't Stop (C.L.U.B.B. MIX)"    PERFORMER "ATB"    INDEX 01 00:00:00  TRACK 02 AUDIO    TITLE "Einz, Zwei, Polizei ('99 Remix-Radio Version)"    PERFORMER "Mo-Do"    INDEX 00 05:51:50    INDEX 01 05:52:52  TRACK 03 AUDIO    TITLE "Colour The World (ATB Remix)"    PERFORMER "Sash!"    INDEX 00 09:40:17    INDEX 01 09:41:22  TRACK 04 AUDIO    TITLE "In 2 Iternity (Dop-Mix)"    PERFORMER "DJ Sammy feat. Carisma"    INDEX 00 15:33:25    INDEX 01 15:34:30  TRACK 05 AUDIO    TITLE "Anthem #1 (Take 01 Radio edit)"    PERFORMER "Floorfilla"    INDEX 00 21:38:72    INDEX 01 21:40:02  TRACK 06 AUDIO    TITLE "What Is Music /BA BA BA/ (Deep mix)"    PERFORMER "Da Bros"    INDEX 01 27:27:35  TRACK 07 AUDIO    TITLE "Silence (John B. Norman Mix)"    PERFORMER "Mike Koglin"    INDEX 01 32:43:22  TRACK 08 AUDIO    TITLE "Born To Be A Dee Jay (Radio DJ's Mix)"    PERFORMER "DJ's Unlimited"    INDEX 00 38:43:10    INDEX 01 38:44:15  TRACK 09 AUDIO    TITLE "Rejoice In Love (Aohh! Mix)"    PERFORMER "Bacon Popper"    INDEX 00 42:14:57    INDEX 01 42:15:62  TRACK 10 AUDIO    TITLE "Everybody Says Party (Krio Genesis Radio Mix)"    PERFORMER "Sans Plomb"    INDEX 00 46:12:22    INDEX 01 46:13:27  TRACK 11 AUDIO    TITLE "Universal Nation  /The real Anthem/ (dj jamX & DeLeons''Dumonde'' Radio Mix)"    PERFORMER "Push"    INDEX 01 50:20:70  TRACK 12 AUDIO    TITLE "Deeper /Live Your Fantasy/ (Moaning Radio Mix)"    PERFORMER "K-Club pres. Ines"    INDEX 00 53:25:27    INDEX 01 53:26:32  TRACK 13 AUDIO    TITLE "Are You Ready? (Radio Edit)"    PERFORMER "DJ Bart"    INDEX 00 57:15:12    INDEX 01 57:16:17  TRACK 14 AUDIO    TITLE "Mayday (Radio Edit)"    PERFORMER "DJ Starfighter"    INDEX 00 61:33:70    INDEX 01 61:35:00  TRACK 15 AUDIO    TITLE "Dedicato (Vocal Single Mix)"    PERFORMER "Dedicato"    INDEX 00 65:10:30    INDEX 01 65:11:35  TRACK 16 AUDIO    TITLE "Keep On Pumpin' On (Radio Edit)"    PERFORMER "DJ Don pres. The Party Zone"    INDEX 01 68:56:60
Вы не можете начинать темы
Вы не можете отвечать на сообщения
Вы не можете редактировать свои сообщения
Вы не можете удалять свои сообщения
Вы не можете голосовать в опросах
Вы не можете прикреплять файлы к сообщениям
Вы можете скачивать файлы
!ВНИМАНИЕ!

Сайт не предоставляет электронные версии произведений, а занимается лишь коллекционированием и каталогизацией ссылок, присылаемых и публикуемых на форуме нашими читателями. Если вы являетесь правообладателем какого-либо представленного материала и не желаете, чтобы ссылка на него находилась в нашем каталоге, свяжитесь с нами, и мы незамедлительно удалим ее. Файлы для обмена на трекере предоставлены пользователями сайта, и администрация не несет ответственности за их содержание. Просьба не заливать файлы, защищенные авторскими правами, а также файлы нелегального содержания!

Искали программы, игры, дополнения, музыка mp3, аниме, аудио книги, журналы? Добро пожаловать на свободный торрент трекер Torrents, у нас можно скачать бесплатно, без смс и регистрации и прочих ограничений лучшие, отборные сборки программ, игр. Скачать торрентом не составит труда даже не опытному пользователю. Раздачи ежедневно обновляются, только лучшие и качественные раздачи, подробные описания и скриншоты. Огромная коллекция программ для работы со звуком, графикой, дизайном, а так же множество плагинов и инструментов к ним с подробной инструкцией и рекомендациями. Прошивки для навигаторов, карты. Разнообразные игры, для Windows, Linux. В коллекцие есть и старые игры любых жанров, Rpg, Action, Shooter, strategy Множество дополнений, модификаций, сценариев для популярных игр в жанре экш, рпг, гонки, стратегии, логические игры. Множество аддонов и сценариев для Microsoft Flight Simulator Большая коллекция книг, учебников. Если нет возможности купить печатное издание - смело скачивайте цифровую версию книги или, быть может, журнала. Не любите читать - можно загрузить бесплатно аудикнигу. Для веб дизайнеров и программистов так же найдется множество специализированного софта, таких как: редакторы с подсветкой, среды программирования, компоненты, системы управления базами данных, разнообразные скрипты и шаблоны. Не так давно у нас появился материал для автолюбителей и владельцев мото - оригинальные и неоригинальные каталоги запчастей, книги и журналы по ремонту и обслуживанию, видеоуроки, статьи по чип тюнингу, прошивкам. Процедура получения контента элементарная, достаточно просто скачать торрент файл и добавить его в загрузку в вашем торрент клиенте. Если у вас нет специального торрент клиента, вы можете его скачать у нас.