(IDM, Dub Techno, Techno , Ambient ) [WEB] Silent Harbour - Discography [2012 - 2018] [4 Releases] , FLAC (tracks), lossless 

Цитировать
Silent Harbour
-Real Name: Boris Bunnik-Жанр: IDM, Dub Techno, Techno , Ambient || Годы изданий: 2012 - 2018
Аудио кодек:FLAC|| Тип рипа: tracks || Битрейт аудио: lossless || Источник: Apollo / обмен

Albums

(2012) Silent Harbour (echocord cd012)

Производитель : Echocord
Жанр: IDM, Dub Techno, Ambient-01. Aquatic Movement (07:45)
02. Cascades (04:53)
03. Metaphysical Storm (07:28)
04. Voices Of The Deep (05:50)
05. Dock Operations (04:42)
06. Saltwater Intrusion (10:05)
07. Profundal Zone (07:41)
08. Decending Radius Curve (05:26)
09. Geometry (05:13)
Total length: 59:03
-

Лог создания рипа

Exact Audio Copy V1.0 beta 3 from 29. August 2011
EAC extraction logfile from 12. September 2012, 16:47
Silent Harbour / Silent Harbour
Used drive : TS8XDVDRTranscend Adapter: 1 ID: 1
Read mode : SecureUtilize accurate stream : YesDefeat audio cache : YesMake use of C2 pointers : No
Read offset correction : 6Overread into Lead-In and Lead-Out : NoFill up missing offset samples with silence : YesDelete leading and trailing silent blocks : NoNull samples used in CRC calculations : YesUsed interface : Native Win32 interface for Win NT & 2000Gap handling : Appended to previous track
Used output format : User Defined EncoderSelected bitrate : 1024 kBit/sQuality : HighAdd ID3 tag : NoCommand line compressor : C:\Program Files (x86)\Exact Audio Copy\Flac\flac.exeAdditional command line options : -8 -V -T "ARTIST=%artist%" -T "TITLE=%title%" -T "ALBUM=%albumtitle%" -T "DATE=%year%" -T "TRACKNUMBER=%tracknr%" -T "GENRE=%genre%" -T "PERFORMER=%albuminterpret%" -T "COMPOSER=%composer%" %haslyrics%--tag-from-file=LYRICS="%lyricsfile%"%haslyrics% -T "ALBUMARTIST=%albumartist%" -T "DISCNUMBER=%cdnumber%" -T "TOTALDISCS=%totalcds%" -T "TOTALTRACKS=%numtracks%" -T "COMMENT=%comment%" %source% -o %dest%
TOC of the extracted CD
Track | Start | Length | Start sector | End sector --------------------------------------------------------- 1 | 0:00.00 | 7:48.61 | 0 | 35160 2 | 7:48.61 | 5:28.19 | 35161 | 59779 3 | 13:17.05 | 4:44.01 | 59780 | 81080 4 | 18:01.06 | 4:56.59 | 81081 | 103339 5 | 22:57.65 | 5:14.66 | 103340 | 126955 6 | 28:12.56 | 7:31.20 | 126956 | 160800 7 | 35:44.01 | 7:42.59 | 160801 | 195509 8 | 43:26.60 | 10:07.64 | 195510 | 241098 9 | 53:34.49 | 5:59.00 | 241099 | 268023 10 | 59:33.49 | 5:53.27 | 268024 | 294525
Track 1
Filename C:\Users\Администратор\Desktop\EAC\Silent Harbour - Silent Harbour (2012) [FLAC]\1-01. Silent Harbour - Aquatic Movement.wav
Pre-gap length 0:00:02.00
Peak level 96.6 % Extraction speed 1.2 X Track quality 100.0 % Test CRC 2667304B Copy CRC 2667304B Track not present in AccurateRip database Copy OK
Track 2
Filename C:\Users\Администратор\Desktop\EAC\Silent Harbour - Silent Harbour (2012) [FLAC]\1-02. Silent Harbour - Cascade.wav
Peak level 96.6 % Extraction speed 1.4 X Track quality 100.0 % Test CRC 64BEA178 Copy CRC 64BEA178 Track not present in AccurateRip database Copy OK
Track 3
Filename C:\Users\Администратор\Desktop\EAC\Silent Harbour - Silent Harbour (2012) [FLAC]\1-03. Silent Harbour - Scintillans In The Port.wav
Pre-gap length 0:00:02.00
Peak level 60.9 % Extraction speed 1.5 X Track quality 100.0 % Test CRC C10D4F4B Copy CRC C10D4F4B Track not present in AccurateRip database Copy OK
Track 4
Filename C:\Users\Администратор\Desktop\EAC\Silent Harbour - Silent Harbour (2012) [FLAC]\1-04. Silent Harbour - Geometry.wav
Pre-gap length 0:00:02.00
Peak level 68.4 % Extraction speed 1.4 X Track quality 99.9 % Test CRC EB079221 Copy CRC EB079221 Track not present in AccurateRip database Copy OK
Track 5
Filename C:\Users\Администратор\Desktop\EAC\Silent Harbour - Silent Harbour (2012) [FLAC]\1-05. Silent Harbour - Dock Operations.wav
Pre-gap length 0:00:02.00
Peak level 96.6 % Extraction speed 1.7 X Track quality 100.0 % Test CRC DC5E66BE Copy CRC DC5E66BE Track not present in AccurateRip database Copy OK
Track 6
Filename C:\Users\Администратор\Desktop\EAC\Silent Harbour - Silent Harbour (2012) [FLAC]\1-06. Silent Harbour - Metaphysical Storm.wav
Pre-gap length 0:00:02.00
Peak level 96.6 % Extraction speed 1.9 X Track quality 100.0 % Test CRC 4E00943F Copy CRC 4E00943F Track not present in AccurateRip database Copy OK
Track 7
Filename C:\Users\Администратор\Desktop\EAC\Silent Harbour - Silent Harbour (2012) [FLAC]\1-07. Silent Harbour - Profundal Zone.wav
Pre-gap length 0:00:02.00
Peak level 96.6 % Extraction speed 1.9 X Track quality 99.9 % Test CRC 924678FB Copy CRC 924678FB Track not present in AccurateRip database Copy OK
Track 8
Filename C:\Users\Администратор\Desktop\EAC\Silent Harbour - Silent Harbour (2012) [FLAC]\1-08. Silent Harbour - Saltwater Intrusion.wav
Pre-gap length 0:00:02.00
Peak level 68.4 % Extraction speed 2.1 X Track quality 99.9 % Test CRC 4794B5C7 Copy CRC 4794B5C7 Track not present in AccurateRip database Copy OK
Track 9
Filename C:\Users\Администратор\Desktop\EAC\Silent Harbour - Silent Harbour (2012) [FLAC]\1-09. Silent Harbour - Descending Radius Curve.wav
Pre-gap length 0:00:02.00
Peak level 54.3 % Extraction speed 2.3 X Track quality 100.0 % Test CRC 19C073E4 Copy CRC 19C073E4 Track not present in AccurateRip database Copy OK
Track 10
Filename C:\Users\Администратор\Desktop\EAC\Silent Harbour - Silent Harbour (2012) [FLAC]\1-10. Silent Harbour - Voices Of The Deep.wav
Pre-gap length 0:00:02.00
Peak level 96.6 % Extraction speed 2.4 X Track quality 100.0 % Test CRC CC837691 Copy CRC CC837691 Track not present in AccurateRip database Copy OK
None of the tracks are present in the AccurateRip database
No errors occurred
End of status report
---- CUETools DB Plugin V2.1.3
[CTDB TOCID: PF.WMpkbD6dAI8D7ZqMuYc0PA2Q-] found, Submit result: already submitted[8ab819cc] (1/1) Accurately ripped
==== Log checksum 976739070FAE36E528ADF884CA42FEB8EA96321697E9BEFCBD5738C53328D16C ====

Содержание индексной карты (.CUE)

REM GENRE "IDM, Dub Techno, Ambient"REM DATE 2012REM DISCID 970F570AREM COMMENT "ExactAudioCopy v1.0b3"PERFORMER "Silent Harbour"TITLE "Silent Harbour"FILE "1-01. Silent Harbour - Aquatic Movement.wav" WAVE  TRACK 01 AUDIO    TITLE "Aquatic Movement"    PERFORMER "Silent Harbour"    ISRC DEU671201273    INDEX 01 00:00:00FILE "1-02. Silent Harbour - Cascade.wav" WAVE  TRACK 02 AUDIO    TITLE "Cascade"    PERFORMER "Silent Harbour"    ISRC DEU671201273    INDEX 01 00:00:00  TRACK 03 AUDIO    TITLE "Scintillans In The Port"    PERFORMER "Silent Harbour"    ISRC DEU671201275    INDEX 00 05:26:19FILE "1-03. Silent Harbour - Scintillans In The Port.wav" WAVE    INDEX 01 00:00:00  TRACK 04 AUDIO    TITLE "Geometry"    PERFORMER "Silent Harbour"    ISRC DEU671201276    INDEX 00 04:42:01FILE "1-04. Silent Harbour - Geometry.wav" WAVE    INDEX 01 00:00:00  TRACK 05 AUDIO    TITLE "Dock Operations"    PERFORMER "Silent Harbour"    ISRC DEU671201277    INDEX 00 04:54:59FILE "1-05. Silent Harbour - Dock Operations.wav" WAVE    INDEX 01 00:00:00  TRACK 06 AUDIO    TITLE "Metaphysical Storm"    PERFORMER "Silent Harbour"    ISRC DEU671201278    INDEX 00 05:12:66FILE "1-06. Silent Harbour - Metaphysical Storm.wav" WAVE    INDEX 01 00:00:00  TRACK 07 AUDIO    TITLE "Profundal Zone"    PERFORMER "Silent Harbour"    ISRC DEU671201279    INDEX 00 07:29:20FILE "1-07. Silent Harbour - Profundal Zone.wav" WAVE    INDEX 01 00:00:00  TRACK 08 AUDIO    TITLE "Saltwater Intrusion"    PERFORMER "Silent Harbour"    ISRC DEU671201280    INDEX 00 07:40:59FILE "1-08. Silent Harbour - Saltwater Intrusion.wav" WAVE    INDEX 01 00:00:00  TRACK 09 AUDIO    TITLE "Descending Radius Curve"    PERFORMER "Silent Harbour"    ISRC DEU671201281    INDEX 00 10:05:64FILE "1-09. Silent Harbour - Descending Radius Curve.wav" WAVE    INDEX 01 00:00:00  TRACK 10 AUDIO    TITLE "Voices Of The Deep"    PERFORMER "Silent Harbour"    ISRC DEU671201282    INDEX 00 05:57:00FILE "1-10. Silent Harbour - Voices Of The Deep.wav" WAVE    INDEX 01 00:00:00

(2016) Hinterland (DSCLP01)

Производитель : Deep Sound Channel
Жанр: Techno, Dub Techno, Experimental
01. Morning Sun (06:46)
02. Draft (06:00)
03. Tidal Window (06:50)
4. Navier Stokes Equations (05:31)
005. FEG Depth (05:28)
06. Environmental Migrant (07:03)
07. Black Cloud (06:00)
08. Travelogue (06:28)
Total length: 50:06-

Лог проверки качества

-----------------------
DON'T MODIFY THIS FILE
-----------------------
PERFORMER: auCDtect Task Manager, ver. 1.5.1RC6 build 1.5.1.7Copyright (c) 2008-2010 y-soft. All rights reservedhttp://y-soft.org
ANALYZER: auCDtect: CD records authenticity detector, version 0.8.2Copyright (c) 2004 Oleg Berngardt. All rights reserved.Copyright (c) 2004 Alexander Djourik. All rights reserved.
FILE: 08 Travelogue.flac Size: 38149179 Hash: AB4C592444BCF1186C45B0D39528B229 Accuracy: -m0 Conclusion: CDDA 100% Signature: 38A8482BF294242845BE96892CA6C34C111C9F1BFILE: 07 Black Cloud.flac Size: 35596840 Hash: D707C67E8443BCE8E1F3493E3E8B7E7D Accuracy: -m0 Conclusion: CDDA 100% Signature: AEFAD497AD7DD0F0E01B736FE2FF6F413E876388FILE: 06 Environmental Migrant.flac Size: 39912184 Hash: EFD86C2045D4C0DDCA4E41EBA2BDC3B8 Accuracy: -m0 Conclusion: CDDA 100% Signature: 0E7B32674E7C9141844469770F2851275F356F2FFILE: 05 FEG Depth.flac Size: 37858072 Hash: 31DA4648A1CBC73C52A74BBB0D4A95EC Accuracy: -m0 Conclusion: CDDA 92% Signature: 3DD9A5A645BCDFC1E55FFDB90191F03C3E19DFB5FILE: 04 Navier Stokes Equations.flac Size: 30496757 Hash: 4138169BEE7335DDB8A84280510A6090 Accuracy: -m0 Conclusion: CDDA 99% Signature: 78F60F3B9158092CF07A1AC58A4D3EE99479935FFILE: 03 Tidal Window.flac Size: 37879502 Hash: F29BBE3E18C2940E84814630943254B0 Accuracy: -m0 Conclusion: CDDA 99% Signature: 7C919D20A97B0F1C9FA3812102782BE0B8CA3DF1FILE: 02 Draft.flac Size: 32327913 Hash: 363B9F57B0A0A7D2400BBA0216051651 Accuracy: -m0 Conclusion: CDDA 100% Signature: B9AC0074DA6C60649AB2599361568D81A1D3D866FILE: 01 Morning Sun.flac Size: 43363649 Hash: B1C67C6215B6CA19F056EF9C08ED518B Accuracy: -m0 Conclusion: CDDA 100% Signature: 56CF76CC79CBF260BA8158D82C5D0B3A389C8C4C

(2016) Silent Harbour LP (Remastered) (TRSDLP0001)

Производитель : Echocord
Жанр: IDM, Dub Techno, Ambient-01. Aquatic Movement (07:45)
02. Cascades (04:53)
03. Metaphysical Storm (07:28)
04. Voices Of The Deep (05:50)
05. Dock Operations (04:42)
06. Saltwater Intrusion (10:05)
07. Profundal Zone (07:41)
08. Decending Radius Curve (05:26)
09. Geometry (05:13)
Total length: 59:03-

Лог проверки качества

-----------------------
DON'T MODIFY THIS FILE
-----------------------
PERFORMER: auCDtect Task Manager, ver. 1.5.1RC6 build 1.5.1.7Copyright (c) 2008-2010 y-soft. All rights reservedhttp://y-soft.org
ANALYZER: auCDtect: CD records authenticity detector, version 0.8.2Copyright (c) 2004 Oleg Berngardt. All rights reserved.Copyright (c) 2004 Alexander Djourik. All rights reserved.
FILE: 08. Decending Radius Curve.flac Size: 30703573 Hash: F3BDC360ED6857FECC16360BA287C756 Accuracy: -m0 Conclusion: CDDA 100% Signature: B43EB97B794D809AA92A1ECCDBCC0B6F0B11FD4DFILE: 07. Profundal Zone.flac Size: 50659375 Hash: E4802F462385DFDB61D11158461EC804 Accuracy: -m0 Conclusion: CDDA 99% Signature: AE0ABE7FF2699EBD3633E080CA2308DE8A314807FILE: 06. Saltwater Intrusion.flac Size: 69249272 Hash: 0A52C012A1FE27B1C05DE0EC323827CB Accuracy: -m0 Conclusion: CDDA 100% Signature: F20953D169C3FCBB197A0517DBBEC4DE4FF0C123FILE: 05. Dock Operations.flac Size: 27575103 Hash: 59C1C9956C2B27740475F5EC4AC313A7 Accuracy: -m0 Conclusion: CDDA 99% Signature: 8F0D116F8F461175D28B0A4F15E0F04863A3E898FILE: 04. Voices Of The Deep.flac Size: 26692054 Hash: DC15D908BB5A383B5515BB78EE7F5CDF Accuracy: -m0 Conclusion: CDDA 100% Signature: 0B66B0BF976D1199F4FF54C3F92927A993020EE9FILE: 03. Metaphysical Storm.flac Size: 49559072 Hash: CE356E29CC0C16133F5E54F00A7543BD Accuracy: -m0 Conclusion: CDDA 100% Signature: 98E5A668CEF2B25CE6B57D23415D01AFA6205683FILE: 02. Cascades.flac Size: 27781071 Hash: ED4274E4A4D721AAE796D1C2AB3C4B30 Accuracy: -m0 Conclusion: CDDA 99% Signature: 49EB38CA230BC42057350889349567A661DC99D8FILE: 01. Aquatic Movement.flac Size: 53874917 Hash: 867F49D5B463FB0229C92C2E19C6F0D0 Accuracy: -m0 Conclusion: CDDA 100% Signature: 910B4B78B7F3DC8374113275E483B32DFF45FF0AFILE: 09. Geometry.flac Size: 32172538 Hash: 86421BF864CCE8A9AF1B2F5A39F842AD Accuracy: -m0 Conclusion: CDDA 100% Signature: CD67C2ACB9A0A420F9F24F73213324893953CF80

(2018) Noctiluca (Echocord 078)

Производитель : Echocord
Жанр: Dub Techno, Techno-01. Riparian (03:23)
02. Noctiluca (06:05)
03. Dwelling (05:09)
04. Peridinum (06:43)
05. Fusiformis (07:25)
06. Pelagia (06:52)
Total length: 35:37-

Лог проверки качества

-----------------------
DON'T MODIFY THIS FILE
-----------------------
PERFORMER: auCDtect Task Manager, ver. 1.5.1RC6 build 1.5.1.7Copyright (c) 2008-2010 y-soft. All rights reservedhttp://y-soft.org
ANALYZER: auCDtect: CD records authenticity detector, version 0.8.2Copyright (c) 2004 Oleg Berngardt. All rights reserved.Copyright (c) 2004 Alexander Djourik. All rights reserved.
FILE: 05. Fusiformis.flac Size: 38314480 Hash: E7D118D07C722CAB250E64D6ABF432AD Accuracy: -m0 Conclusion: CDDA 100% Signature: 4ECB410577D7C7F022A570350C48D557EFFEC5E1FILE: 04. Peridinum.flac Size: 34682279 Hash: 6D6B52F6E11AA8D84331B8E19C50D8F4 Accuracy: -m0 Conclusion: CDDA 100% Signature: CF0950C5F4FD964FDE53FD3C7BCBC5CC0021B5CBFILE: 03. Dwelling.flac Size: 30410574 Hash: 413ACD2EB939F03C5784B5985723554E Accuracy: -m0 Conclusion: CDDA 99% Signature: 74CB5D4D9D90C40A93430A439A0A6F83B2CF5C26FILE: 02. Noctiluca.flac Size: 31087532 Hash: 6304B9EF4481BC04FEF8A1901B3F44AB Accuracy: -m0 Conclusion: CDDA 86% Signature: 7A717860CEAF610A3E53619CE6BAF2560069A48FFILE: 01. Riparian.flac Size: 18355624 Hash: 5E2CC56600243FEDA2386FA72C0D16BF Accuracy: -m0 Conclusion: CDDA 100% Signature: 9D5311B462BF7A08C7C02FB1B72464FC6FCF1F66FILE: 06. Pelagia.flac Size: 39156417 Hash: C0E645B0F6C1732A383666EC127E36B6 Accuracy: -m0 Conclusion: CDDA 100% Signature: 89AD55864CEF8CC5EF240EFBE3A7D0B813122EE4
Вы не можете начинать темы
Вы не можете отвечать на сообщения
Вы не можете редактировать свои сообщения
Вы не можете удалять свои сообщения
Вы не можете голосовать в опросах
Вы не можете прикреплять файлы к сообщениям
Вы можете скачивать файлы
!ВНИМАНИЕ!

Сайт не предоставляет электронные версии произведений, а занимается лишь коллекционированием и каталогизацией ссылок, присылаемых и публикуемых на форуме нашими читателями. Если вы являетесь правообладателем какого-либо представленного материала и не желаете, чтобы ссылка на него находилась в нашем каталоге, свяжитесь с нами, и мы незамедлительно удалим ее. Файлы для обмена на трекере предоставлены пользователями сайта, и администрация не несет ответственности за их содержание. Просьба не заливать файлы, защищенные авторскими правами, а также файлы нелегального содержания!

Искали программы, игры, дополнения, музыка mp3, аниме, аудио книги, журналы? Добро пожаловать на свободный торрент трекер Torrents, у нас можно скачать бесплатно, без смс и регистрации и прочих ограничений лучшие, отборные сборки программ, игр. Скачать торрентом не составит труда даже не опытному пользователю. Раздачи ежедневно обновляются, только лучшие и качественные раздачи, подробные описания и скриншоты. Огромная коллекция программ для работы со звуком, графикой, дизайном, а так же множество плагинов и инструментов к ним с подробной инструкцией и рекомендациями. Прошивки для навигаторов, карты. Разнообразные игры, для Windows, Linux. В коллекцие есть и старые игры любых жанров, Rpg, Action, Shooter, strategy Множество дополнений, модификаций, сценариев для популярных игр в жанре экш, рпг, гонки, стратегии, логические игры. Множество аддонов и сценариев для Microsoft Flight Simulator Большая коллекция книг, учебников. Если нет возможности купить печатное издание - смело скачивайте цифровую версию книги или, быть может, журнала. Не любите читать - можно загрузить бесплатно аудикнигу. Для веб дизайнеров и программистов так же найдется множество специализированного софта, таких как: редакторы с подсветкой, среды программирования, компоненты, системы управления базами данных, разнообразные скрипты и шаблоны. Не так давно у нас появился материал для автолюбителей и владельцев мото - оригинальные и неоригинальные каталоги запчастей, книги и журналы по ремонту и обслуживанию, видеоуроки, статьи по чип тюнингу, прошивкам. Процедура получения контента элементарная, достаточно просто скачать торрент файл и добавить его в загрузку в вашем торрент клиенте. Если у вас нет специального торрент клиента, вы можете его скачать у нас.