(Electro, House, Techno, Acoustic, IDM) [CD] Orbital - Monsters Exist (HMV Deluxe, 3xCD) - 2018, FLAC (tracks+.cue), lossless 

Цитировать
Orbital - Monsters Exist (HMV Deluxe, 3xCD)
Жанр: Electro, House, Techno, Acoustic, IDM
Носитель: CD
Год издания: 2018
Издатель (лейбл): ACP Recordings
Номер по каталогу: ACPCD1805
Страна исполнителя (группы): UK
Аудиокодек: FLAC (*.flac)
Тип рипа: tracks+.cue
Битрейт аудио: lossless
Продолжительность: 01:48:12
Источник (релизер): sd89 (RED)
Наличие сканов в содержимом раздачи: нет
Треклист:
1.1. Monsters Exist
1.2. Hoo Hoo Ha Ha
1.3. The Raid
1.4. P.H.U.K.
1.5. Tiny Foldable Cities
1.6. Buried Deep Within
1.7. Vision OnE
1.8. The End Is Nigh
1.9. There Will Come A Time (Feat. Prof. Brian Cox)
2.1. Kaiju
2.2. A Long Way From Home
2.3. Analogue Test Oct 16
2.4. Fun With The System
2.5. Dressing Up In Other People's Clothes
2.6. To Dream Again
2.7. There Will Come A Time (Instrumental)
2.8. Tiny Foldable Cities (Kareful Remix)
3.1. Kinetic 2017
3.2. Copenhagen
3.3. To Dream Again (Reoccurring Mix)
3.4. Where Is It Going (Live Style Mix)

Логи создания рипа

CD 1

Exact Audio Copy V1.3 from 2. September 2016
EAC extraction logfile from 15. September 2018, 10:59
Orbital / Monsters Exist
Used drive : Lenovo Slim_USB_Burner Adapter: 1 ID: 0
Read mode : SecureUtilize accurate stream : YesDefeat audio cache : YesMake use of C2 pointers : No
Read offset correction : 6Overread into Lead-In and Lead-Out : NoFill up missing offset samples with silence : YesDelete leading and trailing silent blocks : NoNull samples used in CRC calculations : YesUsed interface : Native Win32 interface for Win NT & 2000Gap handling : Appended to previous track
Used output format : User Defined EncoderSelected bitrate : 768 kBit/sQuality : HighAdd ID3 tag : NoCommand line compressor : C:\Program Files (x86)\FLAC\win64\flac.exeAdditional command line options : -8 -V -T "ARTIST=%artist%" -T "TITLE=%title%" -T "ALBUM=%albumtitle%" -T "DATE=%year%" -T "TRACKNUMBER=%tracknr%" -T "GENRE=%genre%" -T "PERFORMER=%albuminterpret%" -T "COMPOSER=%composer%" -T "ALBUMARTIST=%albumartist%" -T "COMMENT=%comment%" %source% -o %dest%
TOC of the extracted CD
Track | Start | Length | Start sector | End sector --------------------------------------------------------- 1 | 0:00.00 | 5:52.66 | 0 | 26465 2 | 5:52.66 | 4:04.57 | 26466 | 44822 3 | 9:57.48 | 5:00.74 | 44823 | 67396 4 | 14:58.47 | 7:25.14 | 67397 | 100785 5 | 22:23.61 | 5:45.30 | 100786 | 126690 6 | 28:09.16 | 4:27.29 | 126691 | 146744 7 | 32:36.45 | 5:44.05 | 146745 | 172549 8 | 38:20.50 | 4:36.06 | 172550 | 193255 9 | 42:56.56 | 7:13.68 | 193256 | 225798
Track 1
Filename D:\EAC\Orbital - Monsters Exists (Deluxe) (2018) [FLAC]\CD 1\01 - Monsters Exist.wav
Pre-gap length 0:00:02.00
Peak level 100.0 % Extraction speed 1.1 X Track quality 99.9 % Test CRC D65482DC Copy CRC D65482DC Track not present in AccurateRip database Copy OK
Track 2
Filename D:\EAC\Orbital - Monsters Exists (Deluxe) (2018) [FLAC]\CD 1\02 - Hoo Hoo Ha Ha.wav
Pre-gap length 0:00:00.09
Peak level 100.0 % Extraction speed 1.2 X Track quality 100.0 % Test CRC DE08B369 Copy CRC DE08B369 Track not present in AccurateRip database Copy OK
Track 3
Filename D:\EAC\Orbital - Monsters Exists (Deluxe) (2018) [FLAC]\CD 1\03 - The Raid.wav
Peak level 100.0 % Extraction speed 1.4 X Track quality 100.0 % Test CRC 8F789E8F Copy CRC 8F789E8F Track not present in AccurateRip database Copy OK
Track 4
Filename D:\EAC\Orbital - Monsters Exists (Deluxe) (2018) [FLAC]\CD 1\04 - P.H.U.K..wav
Peak level 100.0 % Extraction speed 1.5 X Track quality 99.9 % Test CRC 332C2DBE Copy CRC 332C2DBE Track not present in AccurateRip database Copy OK
Track 5
Filename D:\EAC\Orbital - Monsters Exists (Deluxe) (2018) [FLAC]\CD 1\05 - Tiny Foldable Cities.wav
Pre-gap length 0:00:00.08
Peak level 100.0 % Extraction speed 1.7 X Track quality 100.0 % Test CRC 85D1B050 Copy CRC 85D1B050 Track not present in AccurateRip database Copy OK
Track 6
Filename D:\EAC\Orbital - Monsters Exists (Deluxe) (2018) [FLAC]\CD 1\06 - Buried Deep Within.wav
Pre-gap length 0:00:00.73
Peak level 100.0 % Extraction speed 1.7 X Track quality 100.0 % Test CRC 73502F19 Copy CRC 73502F19 Track not present in AccurateRip database Copy OK
Track 7
Filename D:\EAC\Orbital - Monsters Exists (Deluxe) (2018) [FLAC]\CD 1\07 - Vision OnE.wav
Pre-gap length 0:00:01.41
Peak level 100.0 % Extraction speed 1.9 X Track quality 100.0 % Test CRC 8B42B60C Copy CRC 8B42B60C Track not present in AccurateRip database Copy OK
Track 8
Filename D:\EAC\Orbital - Monsters Exists (Deluxe) (2018) [FLAC]\CD 1\08 - The End Is Nigh.wav
Peak level 100.0 % Extraction speed 1.9 X Track quality 100.0 % Test CRC BA2A2BC8 Copy CRC BA2A2BC8 Track not present in AccurateRip database Copy OK
Track 9
Filename D:\EAC\Orbital - Monsters Exists (Deluxe) (2018) [FLAC]\CD 1\09 - There Will Come A Time.wav
Pre-gap length 0:00:00.25
Peak level 100.0 % Extraction speed 2.0 X Track quality 99.9 % Test CRC 3B7C215C Copy CRC 3B7C215C Track not present in AccurateRip database Copy OK
None of the tracks are present in the AccurateRip database
No errors occurred
End of status report
---- CUETools DB Plugin V2.1.6
[CTDB TOCID: H4YMBxRDof0yfp7k9.f7iHsosTA-] foundSubmit result: H4YMBxRDof0yfp7k9.f7iHsosTA- has been confirmedTrack | CTDB Status 1 | (10/10) Accurately ripped 2 | (10/10) Accurately ripped 3 | (10/10) Accurately ripped 4 | (10/10) Accurately ripped 5 | (10/10) Accurately ripped 6 | (10/10) Accurately ripped 7 | (10/10) Accurately ripped 8 | (10/10) Accurately ripped 9 | (10/10) Accurately ripped
==== Log checksum 8FBC2CD836A3A6726C2ED0E5A052FADA58C6291B5AA89CB0894A74125F9E865A ====

CD 2

Exact Audio Copy V1.3 from 2. September 2016
EAC extraction logfile from 15. September 2018, 11:51
Orbital / Monsters Exist
Used drive : Lenovo Slim_USB_Burner Adapter: 1 ID: 0
Read mode : SecureUtilize accurate stream : YesDefeat audio cache : YesMake use of C2 pointers : No
Read offset correction : 6Overread into Lead-In and Lead-Out : NoFill up missing offset samples with silence : YesDelete leading and trailing silent blocks : NoNull samples used in CRC calculations : YesUsed interface : Native Win32 interface for Win NT & 2000Gap handling : Appended to previous track
Used output format : User Defined EncoderSelected bitrate : 768 kBit/sQuality : HighAdd ID3 tag : NoCommand line compressor : C:\Program Files (x86)\FLAC\win64\flac.exeAdditional command line options : -8 -V -T "ARTIST=%artist%" -T "TITLE=%title%" -T "ALBUM=%albumtitle%" -T "DATE=%year%" -T "TRACKNUMBER=%tracknr%" -T "GENRE=%genre%" -T "PERFORMER=%albuminterpret%" -T "COMPOSER=%composer%" -T "ALBUMARTIST=%albumartist%" -T "COMMENT=%comment%" %source% -o %dest%
TOC of the extracted CD
Track | Start | Length | Start sector | End sector --------------------------------------------------------- 1 | 0:00.00 | 5:25.65 | 0 | 24439 2 | 5:25.65 | 1:30.52 | 24440 | 31241 3 | 6:56.42 | 3:06.44 | 31242 | 45235 4 | 10:03.11 | 4:15.03 | 45236 | 64363 5 | 14:18.14 | 4:37.13 | 64364 | 85151 6 | 18:55.27 | 4:38.71 | 85152 | 106072 7 | 23:34.23 | 7:13.69 | 106073 | 138616 8 | 30:48.17 | 3:36.67 | 138617 | 154883
Track 1
Filename D:\EAC\Orbital - Monsters Exists (Deluxe) (2018) [FLAC]\CD 2\01 - Kaiju.wav
Pre-gap length 0:00:02.00
Peak level 100.0 % Extraction speed 1.1 X Track quality 100.0 % Test CRC 85C19D37 Copy CRC 85C19D37 Track not present in AccurateRip database Copy OK
Track 2
Filename D:\EAC\Orbital - Monsters Exists (Deluxe) (2018) [FLAC]\CD 2\02 - A Long Way From Home.wav
Pre-gap length 0:00:01.26
Peak level 99.5 % Extraction speed 1.0 X Track quality 100.0 % Test CRC DADB699E Copy CRC DADB699E Track not present in AccurateRip database Copy OK
Track 3
Filename D:\EAC\Orbital - Monsters Exists (Deluxe) (2018) [FLAC]\CD 2\03 - Analogue Test Oct 16.wav
Pre-gap length 0:00:00.21
Peak level 100.0 % Extraction speed 1.0 X Track quality 99.9 % Test CRC D149FCB1 Copy CRC D149FCB1 Track not present in AccurateRip database Copy OK
Track 4
Filename D:\EAC\Orbital - Monsters Exists (Deluxe) (2018) [FLAC]\CD 2\04 - Fun With The System.wav
Peak level 100.0 % Extraction speed 1.3 X Track quality 100.0 % Test CRC 1F6304E5 Copy CRC 1F6304E5 Track not present in AccurateRip database Copy OK
Track 5
Filename D:\EAC\Orbital - Monsters Exists (Deluxe) (2018) [FLAC]\CD 2\05 - Dressing Up In Other People's Clothes.wav
Pre-gap length 0:00:00.88
Peak level 99.9 % Extraction speed 1.5 X Track quality 100.0 % Test CRC 8BBF2598 Copy CRC 8BBF2598 Track not present in AccurateRip database Copy OK
Track 6
Filename D:\EAC\Orbital - Monsters Exists (Deluxe) (2018) [FLAC]\CD 2\06 - To Dream Again.wav
Peak level 100.0 % Extraction speed 1.6 X Track quality 100.0 % Test CRC 595FEEEA Copy CRC 595FEEEA Track not present in AccurateRip database Copy OK
Track 7
Filename D:\EAC\Orbital - Monsters Exists (Deluxe) (2018) [FLAC]\CD 2\07 - There Will Come A Time (Instrumental).wav
Pre-gap length 0:00:01.81
Peak level 100.0 % Extraction speed 1.6 X Track quality 99.9 % Test CRC F50BEFA5 Copy CRC F50BEFA5 Track not present in AccurateRip database Copy OK
Track 8
Filename D:\EAC\Orbital - Monsters Exists (Deluxe) (2018) [FLAC]\CD 2\08 - Tiny Foldable Cities (Kareful Remix).wav
Pre-gap length 0:00:00.08
Peak level 100.0 % Extraction speed 1.7 X Track quality 100.0 % Test CRC BF2EC3CB Copy CRC BF2EC3CB Track not present in AccurateRip database Copy OK
None of the tracks are present in the AccurateRip database
No errors occurred
End of status report
---- CUETools DB Plugin V2.1.6
[CTDB TOCID: KMBKpfXeTmRYJ3vKhZ4vgNBKgTk-] foundSubmit result: KMBKpfXeTmRYJ3vKhZ4vgNBKgTk- has been confirmedTrack | CTDB Status 1 | (11/11) Accurately ripped 2 | (11/11) Accurately ripped 3 | (11/11) Accurately ripped 4 | (11/11) Accurately ripped 5 | (11/11) Accurately ripped 6 | (11/11) Accurately ripped 7 | (11/11) Accurately ripped 8 | (11/11) Accurately ripped
==== Log checksum 4B1FE722DA757B1434A2D92876A36BDC5B796E1A53CF28A5759F7A2873280A46 ====

CD 3

Exact Audio Copy V1.3 from 2. September 2016
EAC extraction logfile from 15. September 2018, 12:28
Orbital / Monsters Exist
Used drive : Lenovo Slim_USB_Burner Adapter: 1 ID: 0
Read mode : SecureUtilize accurate stream : YesDefeat audio cache : YesMake use of C2 pointers : No
Read offset correction : 6Overread into Lead-In and Lead-Out : NoFill up missing offset samples with silence : YesDelete leading and trailing silent blocks : NoNull samples used in CRC calculations : YesUsed interface : Native Win32 interface for Win NT & 2000Gap handling : Appended to previous track
Used output format : User Defined EncoderSelected bitrate : 768 kBit/sQuality : HighAdd ID3 tag : NoCommand line compressor : C:\Program Files (x86)\FLAC\win64\flac.exeAdditional command line options : -8 -V -T "ARTIST=%artist%" -T "TITLE=%title%" -T "ALBUM=%albumtitle%" -T "DATE=%year%" -T "TRACKNUMBER=%tracknr%" -T "GENRE=%genre%" -T "PERFORMER=%albuminterpret%" -T "COMPOSER=%composer%" -T "ALBUMARTIST=%albumartist%" -T "COMMENT=%comment%" %source% -o %dest%
TOC of the extracted CD
Track | Start | Length | Start sector | End sector --------------------------------------------------------- 1 | 0:00.00 | 6:12.30 | 0 | 27929 2 | 6:12.30 | 5:26.08 | 27930 | 52387 3 | 11:38.38 | 4:02.06 | 52388 | 70543 4 | 15:40.44 | 7:55.42 | 70544 | 106210
Track 1
Filename D:\EAC\Orbital - Monsters Exists (Deluxe) (2018) [FLAC]\CD 3\01 - Kinetic 2017.wav
Pre-gap length 0:00:02.00
Peak level 100.0 % Extraction speed 1.8 X Track quality 100.0 % Test CRC 9B6E4454 Copy CRC 9B6E4454 Track not present in AccurateRip database Copy OK
Track 2
Filename D:\EAC\Orbital - Monsters Exists (Deluxe) (2018) [FLAC]\CD 3\02 - Copenhagen.wav
Pre-gap length 0:00:00.28
Peak level 100.0 % Extraction speed 2.1 X Track quality 100.0 % Test CRC 5C2784AB Copy CRC 5C2784AB Track not present in AccurateRip database Copy OK
Track 3
Filename D:\EAC\Orbital - Monsters Exists (Deluxe) (2018) [FLAC]\CD 3\03 - To Dream Again (Reoccurring Mix).wav
Pre-gap length 0:00:00.30
Peak level 100.0 % Extraction speed 2.2 X Track quality 100.0 % Test CRC 09A8108D Copy CRC 09A8108D Track not present in AccurateRip database Copy OK
Track 4
Filename D:\EAC\Orbital - Monsters Exists (Deluxe) (2018) [FLAC]\CD 3\04 - Where Is It Going (Live Style Mix).wav
Pre-gap length 0:00:01.57
Peak level 100.0 % Extraction speed 2.5 X Track quality 100.0 % Test CRC E5F67142 Copy CRC E5F67142 Track not present in AccurateRip database Copy OK
None of the tracks are present in the AccurateRip database
No errors occurred
End of status report
---- CUETools DB Plugin V2.1.6
[CTDB TOCID: biazQRvC6Jq1awcZuN6on7ojHaQ-] foundSubmit result: biazQRvC6Jq1awcZuN6on7ojHaQ- has been confirmedTrack | CTDB Status 1 | (1/1) Accurately ripped 2 | (1/1) Accurately ripped 3 | (1/1) Accurately ripped 4 | (1/1) Accurately ripped
==== Log checksum AE51B0D6315EBD1A2A5B11381262F6C321ED8093053122AC2274AF9266F233D5 ====

Содержание индексных карт (.CUE)

CD 1

REM GENRE Electro, House, Techno, Acoustic, IDMREM DATE 2018REM DISCID 800BC209REM COMMENT "ExactAudioCopy v1.3"PERFORMER "Orbital"TITLE "Monsters Exist"FILE "1.1. Monsters Exist.flac" WAVE  TRACK 01 AUDIO    TITLE "Monsters Exist"    PERFORMER "Orbital"    INDEX 01 00:00:00  TRACK 02 AUDIO    TITLE "Hoo Hoo Ha Ha"    PERFORMER "Orbital"    INDEX 00 05:52:59FILE "1.2. Hoo Hoo Ha Ha.flac" WAVE    INDEX 01 00:00:00FILE "1.3. The Raid.flac" WAVE  TRACK 03 AUDIO    TITLE "The Raid"    PERFORMER "Orbital"    INDEX 01 00:00:00FILE "1.4. P.H.U.K..flac" WAVE  TRACK 04 AUDIO    TITLE "P.H.U.K."    PERFORMER "Orbital"    INDEX 01 00:00:00  TRACK 05 AUDIO    TITLE "Tiny Foldable Cities"    PERFORMER "Orbital"    INDEX 00 07:25:08FILE "1.5. Tiny Foldable Cities.flac" WAVE    INDEX 01 00:00:00  TRACK 06 AUDIO    TITLE "Buried Deep Within"    PERFORMER "Orbital"    INDEX 00 05:44:50FILE "1.6. Buried Deep Within.flac" WAVE    INDEX 01 00:00:00  TRACK 07 AUDIO    TITLE "Vision OnE"    PERFORMER "Orbital"    INDEX 00 04:25:73FILE "1.7. Vision OnE.flac" WAVE    INDEX 01 00:00:00FILE "1.8. The End Is Nigh.flac" WAVE  TRACK 08 AUDIO    TITLE "The End Is Nigh"    PERFORMER "Orbital"    INDEX 01 00:00:00  TRACK 09 AUDIO    TITLE "There Will Come A Time (Feat. Prof. Brian Cox)"    PERFORMER "Orbital"    INDEX 00 04:35:62FILE "1.9. There Will Come A Time (Feat. Prof. Brian Cox).flac" WAVE    INDEX 01 00:00:00

CD 2

REM GENRE Electro, House, Techno, Acoustic, IDMREM DATE 2018REM DISCID 5A081108REM COMMENT "ExactAudioCopy v1.3"PERFORMER "Orbital"TITLE "Monsters Exist"FILE "2.1. Kaiju.flac" WAVE  TRACK 01 AUDIO    TITLE "Kaiju"    PERFORMER "Orbital"    INDEX 01 00:00:00  TRACK 02 AUDIO    TITLE "A Long Way From Home"    PERFORMER "Orbital"    INDEX 00 05:24:45FILE "2.2. A Long Way From Home.flac" WAVE    INDEX 01 00:00:00  TRACK 03 AUDIO    TITLE "Analogue Test Oct 16"    PERFORMER "Orbital"    INDEX 00 01:30:36FILE "2.3. Analogue Test Oct 16.flac" WAVE    INDEX 01 00:00:00FILE "2.4. Fun With The System.flac" WAVE  TRACK 04 AUDIO    TITLE "Fun With The System"    PERFORMER "Orbital"    INDEX 01 00:00:00  TRACK 05 AUDIO    TITLE "Dressing Up In Other People's Clothes"    PERFORMER "Orbital"    INDEX 00 04:14:12FILE "2.5. Dressing Up In Other People's Clothes.flac" WAVE    INDEX 01 00:00:00FILE "2.6. To Dream Again.flac" WAVE  TRACK 06 AUDIO    TITLE "To Dream Again"    PERFORMER "Orbital"    INDEX 01 00:00:00  TRACK 07 AUDIO    TITLE "There Will Come A Time (Instrumental)"    PERFORMER "Orbital"    INDEX 00 04:37:10FILE "2.7. There Will Come A Time (Instrumental).flac" WAVE    INDEX 01 00:00:00  TRACK 08 AUDIO    TITLE "Tiny Foldable Cities (Kareful Remix)"    PERFORMER "Orbital"    INDEX 00 07:13:63FILE "2.8. Tiny Foldable Cities (Kareful Remix).flac" WAVE    INDEX 01 00:00:00

CD 3

REM GENRE Electro, House, Techno, Acoustic, IDMREM DATE 2018REM DISCID 26058804REM COMMENT "ExactAudioCopy v1.3"PERFORMER "Orbital"TITLE "Monsters Exist"FILE "3.1. Kinetic 2017.flac" WAVE  TRACK 01 AUDIO    TITLE "Kinetic 2017"    PERFORMER "Orbital"    INDEX 01 00:00:00  TRACK 02 AUDIO    TITLE "Copenhagen"    PERFORMER "Orbital"    INDEX 00 06:12:09FILE "3.2. Copenhagen.flac" WAVE    INDEX 01 00:00:00  TRACK 03 AUDIO    TITLE "To Dream Again (Reoccurring Mix)"    PERFORMER "Orbital"    INDEX 00 05:25:60FILE "3.3. To Dream Again (Reoccurring Mix).flac" WAVE    INDEX 01 00:00:00  TRACK 04 AUDIO    TITLE "Where Is It Going (Live Style Mix)"    PERFORMER "Orbital"    INDEX 00 04:00:38FILE "3.4. Where Is It Going (Live Style Mix).flac" WAVE    INDEX 01 00:00:00
Вы не можете начинать темы
Вы не можете отвечать на сообщения
Вы не можете редактировать свои сообщения
Вы не можете удалять свои сообщения
Вы не можете голосовать в опросах
Вы не можете прикреплять файлы к сообщениям
Вы можете скачивать файлы
!ВНИМАНИЕ!

Сайт не предоставляет электронные версии произведений, а занимается лишь коллекционированием и каталогизацией ссылок, присылаемых и публикуемых на форуме нашими читателями. Если вы являетесь правообладателем какого-либо представленного материала и не желаете, чтобы ссылка на него находилась в нашем каталоге, свяжитесь с нами, и мы незамедлительно удалим ее. Файлы для обмена на трекере предоставлены пользователями сайта, и администрация не несет ответственности за их содержание. Просьба не заливать файлы, защищенные авторскими правами, а также файлы нелегального содержания!

Искали программы, игры, дополнения, музыка mp3, аниме, аудио книги, журналы? Добро пожаловать на свободный торрент трекер Torrents, у нас можно скачать бесплатно, без смс и регистрации и прочих ограничений лучшие, отборные сборки программ, игр. Скачать торрентом не составит труда даже не опытному пользователю. Раздачи ежедневно обновляются, только лучшие и качественные раздачи, подробные описания и скриншоты. Огромная коллекция программ для работы со звуком, графикой, дизайном, а так же множество плагинов и инструментов к ним с подробной инструкцией и рекомендациями. Прошивки для навигаторов, карты. Разнообразные игры, для Windows, Linux. В коллекцие есть и старые игры любых жанров, Rpg, Action, Shooter, strategy Множество дополнений, модификаций, сценариев для популярных игр в жанре экш, рпг, гонки, стратегии, логические игры. Множество аддонов и сценариев для Microsoft Flight Simulator Большая коллекция книг, учебников. Если нет возможности купить печатное издание - смело скачивайте цифровую версию книги или, быть может, журнала. Не любите читать - можно загрузить бесплатно аудикнигу. Для веб дизайнеров и программистов так же найдется множество специализированного софта, таких как: редакторы с подсветкой, среды программирования, компоненты, системы управления базами данных, разнообразные скрипты и шаблоны. Не так давно у нас появился материал для автолюбителей и владельцев мото - оригинальные и неоригинальные каталоги запчастей, книги и журналы по ремонту и обслуживанию, видеоуроки, статьи по чип тюнингу, прошивкам. Процедура получения контента элементарная, достаточно просто скачать торрент файл и добавить его в загрузку в вашем торрент клиенте. Если у вас нет специального торрент клиента, вы можете его скачать у нас.