Это были мы / Bokura ga Ita [TV] [26 из 26] [Без хардсаба] [JAP+SUB] [2006, романтика, драма, школа, сёдзё, TVRip] 

Цитировать
Это были мы / Bokura ga Ita
Год выпуска: 2006
Жанр: романтика, драма, школа, сёдзё
Продолжительность: 25 мин X 26 серий
Перевод: Субтитры
Язык озвучки: японский
Язык неотключаемых субтитров: отсутствуют
Язык отключаемых/внешних субтитров: русский
Равки: l33t-raws
Субтитры: laci, Nodanoshi, blackly
Описание:
От себя могу сказать лишь то, что это вполне добротная работа со всеми необходимыми атрибутами жанра.
За подробностями обращайтесь к комментарию pricheoza
Краткое содержание:
Первый год высшей школы. Для девушек это время прихода любви в их жизнь. Первокурсница Нанами Такахаси (Нана) - не исключение. Она попадает в один класс с безумно популярным у девушек Яно Мотохару, в которого, по слухам, влюблены две трети девушек школы. Но так ли это для Наны, которая на вопрос, нравится он ей или нет, ответила "нет"?
(С) AnimeDB, перевёл Apxubapuyc
World-art: http://www.world-art.ru/animation/animation.php?id=5855
Доп. информация:
Качество: TVRip
Формат: AVI
Видео: DivX 5 640x360 809 kbps vfr
Аудио: MP3 48000Hz stereo 128Kbps

MediaInfo

GeneralComplete name                  : Z:\Video\Anime\Bokura_Ga_Ita_1-26_raw+ass(rus)\[l33t-raws]Bokura_ga_Ita_01_(640x360_DivX511).[F9163FBD].aviFormat                         : AVIFormat/Info                    : Audio Video InterleaveFile size                      : 178 MiBDuration                       : 25mn 39sOverall bit rate               : 968 KbpsWriting library                : This file was made by AviUtl 0.99.
VideoID : 0Format : MPEG-4 VisualFormat settings, BVOP : YesFormat settings, QPel : NoFormat settings, GMC : No warppointsFormat settings, Matrix : Default (H.263)Codec ID : DX50Codec ID/Hint : DivX 5Duration : 25mn 39sBit rate : 809 KbpsWidth : 640 pixelsHeight : 360 pixelsDisplay aspect ratio : 16:9Frame rate mode : VariableFrame rate : 119.880 (24/30) fpsMinimum frame rate : 24 fpsMaximum frame rate : 30 fpsColor space : YUVChroma subsampling : 4:2:0Bit depth : 8 bitsScan type : ProgressiveCompression mode : LossyBits/(Pixel*Frame) : 0.029Stream size : 148 MiB (84%)Writing library : DivX 5.1.1 (Maupiti) (UTC 2003-11-19)
AudioID : 1Format : MPEG AudioFormat version : Version 1Format profile : Layer 3Mode : Joint stereoMode extension : MS StereoCodec ID : 55Codec ID/Hint : MP3Duration : 25mn 39sBit rate mode : ConstantBit rate : 128 KbpsChannel(s) : 2 channelsSampling rate : 48.0 KHzCompression mode : LossyStream size : 23.5 MiB (13%)Alignment : Split accross interleavesInterleave, duration : 24 ms (2.88 video frames)

Скриншоты

Вы не можете начинать темы
Вы не можете отвечать на сообщения
Вы не можете редактировать свои сообщения
Вы не можете удалять свои сообщения
Вы не можете голосовать в опросах
Вы не можете прикреплять файлы к сообщениям
Вы можете скачивать файлы
!ВНИМАНИЕ!

Сайт не предоставляет электронные версии произведений, а занимается лишь коллекционированием и каталогизацией ссылок, присылаемых и публикуемых на форуме нашими читателями. Если вы являетесь правообладателем какого-либо представленного материала и не желаете, чтобы ссылка на него находилась в нашем каталоге, свяжитесь с нами, и мы незамедлительно удалим ее. Файлы для обмена на трекере предоставлены пользователями сайта, и администрация не несет ответственности за их содержание. Просьба не заливать файлы, защищенные авторскими правами, а также файлы нелегального содержания!

Искали программы, игры, дополнения, музыка mp3, аниме, аудио книги, журналы? Добро пожаловать на свободный торрент трекер Torrents, у нас можно скачать бесплатно, без смс и регистрации и прочих ограничений лучшие, отборные сборки программ, игр. Скачать торрентом не составит труда даже не опытному пользователю. Раздачи ежедневно обновляются, только лучшие и качественные раздачи, подробные описания и скриншоты. Огромная коллекция программ для работы со звуком, графикой, дизайном, а так же множество плагинов и инструментов к ним с подробной инструкцией и рекомендациями. Прошивки для навигаторов, карты. Разнообразные игры, для Windows, Linux. В коллекцие есть и старые игры любых жанров, Rpg, Action, Shooter, strategy Множество дополнений, модификаций, сценариев для популярных игр в жанре экш, рпг, гонки, стратегии, логические игры. Множество аддонов и сценариев для Microsoft Flight Simulator Большая коллекция книг, учебников. Если нет возможности купить печатное издание - смело скачивайте цифровую версию книги или, быть может, журнала. Не любите читать - можно загрузить бесплатно аудикнигу. Для веб дизайнеров и программистов так же найдется множество специализированного софта, таких как: редакторы с подсветкой, среды программирования, компоненты, системы управления базами данных, разнообразные скрипты и шаблоны. Не так давно у нас появился материал для автолюбителей и владельцев мото - оригинальные и неоригинальные каталоги запчастей, книги и журналы по ремонту и обслуживанию, видеоуроки, статьи по чип тюнингу, прошивкам. Процедура получения контента элементарная, достаточно просто скачать торрент файл и добавить его в загрузку в вашем торрент клиенте. Если у вас нет специального торрент клиента, вы можете его скачать у нас.