(Hard House, Techno) [WEB] VA - Electronic Imperiah: Hard House Invation - 2002, FLAC (tracks+.cue), lossless 

Цитировать
Electronic Imperiah: Hard House Invation
Жанр: Hard House, Techno
Носитель: CD
Страна-производитель диска (релиза): Украина
Год издания: 2002
Издатель (лейбл): Moon Records
Номер по каталогу: M 009-2
Аудиокодек: FLAC (*.flac)
Тип рипа: tracks+.cue
Битрейт аудио: lossless
Продолжительность: 01:14:46
Источник (релизер): Собственный диск
Наличие сканов в содержимом раздачи: нет
Треклист:
01. Saccoman - Revelation (Hard Mix) (6:52)
02. Massiv' - Black Poka (Voiceseq Mix) (7:01)
03. Mario Piu' - Sensation (Mas Mix) (8:08)
04. Stormtraxx - Moments Of E (E Mix 1) (8:30)
05. DJ Hatrix & Ghost - Vibe (7:54)
06. Zicky - Follow Me (Mas Mix) (7:43)
07. The Moon - In Your Mind (9:36)
08. DJ Bismark - Primitive Love (Train Mix) (6:39)
09. Stormtraxx - The Sun Goes Down (6:55)
10. Massiv' - Duchesse Au Soleil (5:28)

Лог создания рипа

Exact Audio Copy V1.0 beta 3 from 29. August 2011
EAC extraction logfile from 28. August 2018, 15:04
Various / Hard House Invasion Vol. 1
Used drive : HL-DT-STDVDRAM GH24NSB0 Adapter: 1 ID: 0
Read mode : SecureUtilize accurate stream : YesDefeat audio cache : YesMake use of C2 pointers : No
Read offset correction : 6Overread into Lead-In and Lead-Out : YesFill up missing offset samples with silence : YesDelete leading and trailing silent blocks : NoNull samples used in CRC calculations : YesUsed interface : Native Win32 interface for Win NT & 2000Gap handling : Appended to previous track
Used output format : User Defined EncoderSelected bitrate : 128 kBit/sQuality : HighAdd ID3 tag : NoCommand line compressor : C:\Program Files\Exact Audio Copy\Flac\flac.exeAdditional command line options : -V -8 -T "Genre=%genre%" -T "Artist=%artist%" -T "Title=%title%" -T "Album=%albumtitle%" -T "Date=%year%" -T "Tracknumber=%tracknr%" -T "Comment=%comment%" %source%
TOC of the extracted CD
Track | Start | Length | Start sector | End sector --------------------------------------------------------- 1 | 0:00.00 | 6:52.08 | 0 | 30907 2 | 6:52.08 | 7:01.16 | 30908 | 62498 3 | 13:53.24 | 8:08.32 | 62499 | 99130 4 | 22:01.56 | 8:30.00 | 99131 | 137380 5 | 30:31.56 | 7:53.41 | 137381 | 172896 6 | 38:25.22 | 7:42.48 | 172897 | 207594 7 | 46:07.70 | 9:35.41 | 207595 | 250760 8 | 55:43.36 | 6:39.07 | 250761 | 280692 9 | 62:22.43 | 6:55.27 | 280693 | 311844 10 | 69:17.70 | 5:27.45 | 311845 | 336414
Track 1
Filename D:\! REC\VA - Hard House Invasion Vol. 1\01. Saccoman - Revelation (Hard Mix).wav
Pre-gap length 0:00:02.00
Peak level 99.0 % Extraction speed 1.3 X Track quality 100.0 % Test CRC DBB4E899 Copy CRC DBB4E899 Track not present in AccurateRip database Copy OK
Track 2
Filename D:\! REC\VA - Hard House Invasion Vol. 1\02. Massiv' - Black Poka (Voice Seq Mix).wav
Peak level 100.0 % Extraction speed 1.5 X Track quality 100.0 % Test CRC 561A0865 Copy CRC 561A0865 Track not present in AccurateRip database Copy OK
Track 3
Filename D:\! REC\VA - Hard House Invasion Vol. 1\03. Mario Piu' - Sensation (Mas Mix).wav
Peak level 99.0 % Extraction speed 1.7 X Track quality 100.0 % Test CRC 2F5FE5C2 Copy CRC 2F5FE5C2 Track not present in AccurateRip database Copy OK
Track 4
Filename D:\! REC\VA - Hard House Invasion Vol. 1\04. Stormtraxx - Moments Of E (E Mix 1).wav
Peak level 99.6 % Extraction speed 1.9 X Track quality 100.0 % Test CRC E37C1814 Copy CRC E37C1814 Track not present in AccurateRip database Copy OK
Track 5
Filename D:\! REC\VA - Hard House Invasion Vol. 1\05. DJ Hatrix & Ghost - Vibe.wav
Peak level 96.6 % Extraction speed 2.0 X Track quality 100.0 % Test CRC 6388671A Copy CRC 6388671A Track not present in AccurateRip database Copy OK
Track 6
Filename D:\! REC\VA - Hard House Invasion Vol. 1\06. Zicky - Follow Me (Mas Mix).wav
Peak level 99.0 % Extraction speed 2.2 X Track quality 100.0 % Test CRC BC6E702B Copy CRC BC6E702B Track not present in AccurateRip database Copy OK
Track 7
Filename D:\! REC\VA - Hard House Invasion Vol. 1\07. The Moon - In Your Mind.wav
Peak level 100.0 % Extraction speed 2.3 X Track quality 100.0 % Test CRC D767561C Copy CRC D767561C Track not present in AccurateRip database Copy OK
Track 8
Filename D:\! REC\VA - Hard House Invasion Vol. 1\08. D.J. Bismark - Primitive Love (Train Mix).wav
Peak level 99.0 % Extraction speed 2.4 X Track quality 100.0 % Test CRC 117E2D64 Copy CRC 117E2D64 Track not present in AccurateRip database Copy OK
Track 9
Filename D:\! REC\VA - Hard House Invasion Vol. 1\09. Stormtraxx - The Sun Goes Down.wav
Peak level 69.4 % Extraction speed 2.5 X Track quality 100.0 % Test CRC 756335BC Copy CRC 756335BC Track not present in AccurateRip database Copy OK
Track 10
Filename D:\! REC\VA - Hard House Invasion Vol. 1\10. Massiv' - Duchesse Au Soleil.wav
Suspicious position 0:05:27
Peak level 100.0 % Extraction speed 2.8 X Track quality 99.9 % Test CRC F9E30AE7 Copy CRC F9E30AE7 Track not present in AccurateRip database Copy finished
None of the tracks are present in the AccurateRip database
There were errors
End of status report
==== Log checksum 582F2C6622B4D2B6476D6C3A0755D6B9876CAD47DF81EA01E39218C1E07E7E90 ====

Содержание индексной карты (.CUE)

REM GENRE TechnoREM DATE 2002REM DISCID 8B11850AREM COMMENT "ExactAudioCopy v1.0b3"PERFORMER "Various"TITLE "Hard House Invasion Vol. 1"FILE "01. Saccoman - Revelation (Hard Mix).wav" WAVE  TRACK 01 AUDIO    TITLE "Revelation (Hard Mix)"    PERFORMER "Saccoman"    INDEX 01 00:00:00FILE "02. Massiv' - Black Poka (Voice Seq Mix).wav" WAVE  TRACK 02 AUDIO    TITLE "Black Poka (Voice Seq Mix)"    PERFORMER "Massiv'"    INDEX 01 00:00:00FILE "03. Mario Piu' - Sensation (Mas Mix).wav" WAVE  TRACK 03 AUDIO    TITLE "Sensation (Mas Mix)"    PERFORMER "Mario Piu'"    INDEX 01 00:00:00FILE "04. Stormtraxx - Moments Of E (E Mix 1).wav" WAVE  TRACK 04 AUDIO    TITLE "Moments Of E (E Mix 1)"    PERFORMER "Stormtraxx"    INDEX 01 00:00:00FILE "05. DJ Hatrix & Ghost - Vibe.wav" WAVE  TRACK 05 AUDIO    TITLE "Vibe"    PERFORMER "DJ Hatrix & Ghost"    INDEX 01 00:00:00FILE "06. Zicky - Follow Me (Mas Mix).wav" WAVE  TRACK 06 AUDIO    TITLE "Follow Me (Mas Mix)"    PERFORMER "Zicky"    INDEX 01 00:00:00FILE "07. The Moon - In Your Mind.wav" WAVE  TRACK 07 AUDIO    TITLE "In Your Mind"    PERFORMER "The Moon"    INDEX 01 00:00:00FILE "08. D.J. Bismark - Primitive Love (Train Mix).wav" WAVE  TRACK 08 AUDIO    TITLE "Primitive Love (Train Mix)"    PERFORMER "D.J. Bismark"    INDEX 01 00:00:00FILE "09. Stormtraxx - The Sun Goes Down.wav" WAVE  TRACK 09 AUDIO    TITLE "The Sun Goes Down"    PERFORMER "Stormtraxx"    INDEX 01 00:00:00FILE "10. Massiv' - Duchesse Au Soleil.wav" WAVE  TRACK 10 AUDIO    TITLE "Duchesse Au Soleil"    PERFORMER "Massiv'"    INDEX 01 00:00:00

Лог проверки качества

-----------------------
DON'T MODIFY THIS FILE
-----------------------
PERFORMER: auCDtect Task Manager, ver. 1.6.0 RC1 build 1.6.0.1Copyright (c) 2008-2010 y-soft. All rights reservedhttp://y-soft.org
ANALYZER: auCDtect: CD records authenticity detector, version 0.8.2Copyright (c) 2004 Oleg Berngardt. All rights reserved.Copyright (c) 2004 Alexander Djourik. All rights reserved.
FILE: 10. Massiv' - Duchesse Au Soleil.flac Size: 34057577 Hash: A946E8426B00E0D7D8A2C527D6F711AA Accuracy: -m0 Conclusion: CDDA 99% Signature: 860DB27933CFC8C6B9B9F534FF54FAAE97294E05FILE: 09. Stormtraxx - The Sun Goes Down.flac Size: 34817522 Hash: 7875BD5AAE0FC600974757558AD49B78 Accuracy: -m0 Conclusion: CDDA 99% Signature: D0DBC3D3E693D15BAB5CFD7A5AB8DCAE1138A517FILE: 08. D.J. Bismark - Primitive Love (Train Mix).flac Size: 42869336 Hash: FA1FA61EFD9E139A66C5C6249AAB5258 Accuracy: -m0 Conclusion: CDDA 100% Signature: F29D4FB36E260F0C69BAF1E01CF6660F3CAE23CCFILE: 07. The Moon - In Your Mind.flac Size: 63598983 Hash: D4ED82A515A46F3D9CC8D0AB6317A4B6 Accuracy: -m0 Conclusion: CDDA 100% Signature: 9C2C608D298581AE06E7B4E81F1899886AC727A0FILE: 06. Zicky - Follow Me (Mas Mix).flac Size: 46313954 Hash: CE78418AF4EDE7E259F36277657C42F0 Accuracy: -m0 Conclusion: CDDA 100% Signature: 6AF0ED7C105D5DC51E7E30B9659527E8D25B67E4FILE: 05. DJ Hatrix & Ghost - Vibe.flac Size: 45474779 Hash: 3018B125C8A35BE87A98F7EB9B06BA17 Accuracy: -m0 Conclusion: CDDA 100% Signature: A8EAA06D59F3BCB71AC0E666597F382E283BAADAFILE: 04. Stormtraxx - Moments Of E (E Mix 1).flac Size: 59139598 Hash: E1234C45C4659145E506A42C5BB5CC89 Accuracy: -m0 Conclusion: CDDA 100% Signature: 5D0E3F8FF669146B17263DE8E2B49DF8CC3BB814FILE: 03. Mario Piu' - Sensation (Mas Mix).flac Size: 55328796 Hash: F306BD7F382AFF9059E1D3178184946B Accuracy: -m0 Conclusion: CDDA 99% Signature: 3B52B03100AB1F96E4BEA097F59449BB65CC2AD6FILE: 02. Massiv' - Black Poka (Voice Seq Mix).flac Size: 43043975 Hash: F4D69BF22F96E2D226943185E1747546 Accuracy: -m0 Conclusion: CDDA 100% Signature: F6ED17067D9BEBF977A360336A1303AE6F53CD50FILE: 01. Saccoman - Revelation (Hard Mix).flac Size: 44586833 Hash: 1F37A92974D3FDDD22C21CA903C533B4 Accuracy: -m0 Conclusion: CDDA 100% Signature: 3F54C53999FB8C8FF15AB9444898B6031C43CD7E
Вы не можете начинать темы
Вы не можете отвечать на сообщения
Вы не можете редактировать свои сообщения
Вы не можете удалять свои сообщения
Вы не можете голосовать в опросах
Вы не можете прикреплять файлы к сообщениям
Вы можете скачивать файлы
!ВНИМАНИЕ!

Сайт не предоставляет электронные версии произведений, а занимается лишь коллекционированием и каталогизацией ссылок, присылаемых и публикуемых на форуме нашими читателями. Если вы являетесь правообладателем какого-либо представленного материала и не желаете, чтобы ссылка на него находилась в нашем каталоге, свяжитесь с нами, и мы незамедлительно удалим ее. Файлы для обмена на трекере предоставлены пользователями сайта, и администрация не несет ответственности за их содержание. Просьба не заливать файлы, защищенные авторскими правами, а также файлы нелегального содержания!

Искали программы, игры, дополнения, музыка mp3, аниме, аудио книги, журналы? Добро пожаловать на свободный торрент трекер Torrents, у нас можно скачать бесплатно, без смс и регистрации и прочих ограничений лучшие, отборные сборки программ, игр. Скачать торрентом не составит труда даже не опытному пользователю. Раздачи ежедневно обновляются, только лучшие и качественные раздачи, подробные описания и скриншоты. Огромная коллекция программ для работы со звуком, графикой, дизайном, а так же множество плагинов и инструментов к ним с подробной инструкцией и рекомендациями. Прошивки для навигаторов, карты. Разнообразные игры, для Windows, Linux. В коллекцие есть и старые игры любых жанров, Rpg, Action, Shooter, strategy Множество дополнений, модификаций, сценариев для популярных игр в жанре экш, рпг, гонки, стратегии, логические игры. Множество аддонов и сценариев для Microsoft Flight Simulator Большая коллекция книг, учебников. Если нет возможности купить печатное издание - смело скачивайте цифровую версию книги или, быть может, журнала. Не любите читать - можно загрузить бесплатно аудикнигу. Для веб дизайнеров и программистов так же найдется множество специализированного софта, таких как: редакторы с подсветкой, среды программирования, компоненты, системы управления базами данных, разнообразные скрипты и шаблоны. Не так давно у нас появился материал для автолюбителей и владельцев мото - оригинальные и неоригинальные каталоги запчастей, книги и журналы по ремонту и обслуживанию, видеоуроки, статьи по чип тюнингу, прошивкам. Процедура получения контента элементарная, достаточно просто скачать торрент файл и добавить его в загрузку в вашем торрент клиенте. Если у вас нет специального торрент клиента, вы можете его скачать у нас.