Кенноске-сама / Kennosuke-sama [Movie] [Без хардсаба] [JAP+SUB] [1990, приключения, комедия, VHSRip] 

Цитировать
Кенноске-сама / Kennosuke-sama / 剣之介さま
Страна: Япония
Год выпуска: 1990
Жанр: приключения, комедия
Тип: Movie
Продолжительность: 21 мин.
Режиссер: Окадзаки Минору
Студия: Toei Animation
Описание: Учимся как вести себя на свидании с девушкой с Кенноске-сама.
Качество: VHSRip
Тип релиза: Без хардсаба
Формат видео: MKV
Релиз/Автор рипа: shiteater
Видео: AVC, 640x480, 1 300 kb/s, 29.970 fps, 8 bit
Аудио: jpn(int), MP3, 112 kb/s, 48.0 kHz, 1 ch
Субтитры 1: eng(int), ASS
Субтитры 2: rus(ext), ASS, перевод: hokuto_san

Подробные тех. данные

GeneralUnique ID                                : 239349337639231123944581623909436521877 (0xB41101727754A4DC90C55CCC09767D95)Complete name                            : F:\1\MR\(shiteater) Kennosuke-sama (VHS)\(shiteater) Kennosuke-sama (1990) [B18088B3].mkvFormat                                   : MatroskaFormat version                           : Version 4 / Version 2File size                                : 219 MiBDuration                                 : 21 min 12 sOverall bit rate                         : 1 440 kb/sEncoded date                             : UTC 2017-09-23 05:22:29Writing application                      : mkvmerge v12.0.0 ('Trust / Lust') 64bitWriting library                          : libebml v1.3.4 + libmatroska v1.4.5Attachments                              : ARLRDBD_0.TTF / digistrip_0.ttf / trebucbd_0.ttf / trebucbi_0.ttf / VINERITC_0.TTF
VideoID : 1Format : AVCFormat/Info : Advanced Video CodecFormat profile : [email protected] settings : CABAC / 4 Ref FramesFormat settings, CABAC : YesFormat settings, RefFrames : 4 framesCodec ID : V_MPEG4/ISO/AVCDuration : 21 min 12 sBit rate : 1 300 kb/sWidth : 640 pixelsHeight : 480 pixelsDisplay aspect ratio : 4:3Frame rate mode : ConstantFrame rate : 29.970 (30000/1001) FPSColor space : YUVChroma subsampling : 4:2:0Bit depth : 8 bitsScan type : ProgressiveBits/(Pixel*Frame) : 0.141Stream size : 201 MiB (92%)Writing library : x264 core 102 r1666bm d058f37Encoding settings : cabac=1 / ref=3 / deblock=1:0:0 / analyse=0x3:0x113 / me=hex / subme=7 / psy=1 / psy_rd=1.00:0.00 / mixed_ref=1 / me_range=16 / chroma_me=1 / trellis=1 / 8x8dct=1 / cqm=0 / deadzone=21,11 / fast_pskip=1 / chroma_qp_offset=-2 / threads=3 / sliced_threads=0 / nr=0 / decimate=1 / interlaced=0 / constrained_intra=0 / bframes=3 / b_pyramid=2 / b_adapt=1 / b_bias=0 / direct=1 / weightb=1 / open_gop=0 / weightp=2 / keyint=250 / keyint_min=25 / scenecut=40 / intra_refresh=0 / rc_lookahead=40 / rc=abr / mbtree=1 / bitrate=1300 / ratetol=1.0 / qcomp=0.60 / qpmin=10 / qpmax=51 / qpstep=4 / ip_ratio=1.40 / aq=1:1.00Default : YesForced : No
AudioID : 2Format : MPEG AudioFormat version : Version 1Format profile : Layer 3Codec ID : A_MPEG/L3Codec ID/Hint : MP3Duration : 21 min 12 sBit rate mode : ConstantBit rate : 112 kb/sChannel(s) : 1 channelSampling rate : 48.0 kHzFrame rate : 41.667 FPS (1152 SPF)Compression mode : LossyStream size : 17.0 MiB (8%)Writing library : LAME3.98rEncoding settings : -m m -V 4 -q 3 -lowpass 20.5 -b 112Language : JapaneseDefault : YesForced : No
TextID : 3Format : ASSCodec ID : S_TEXT/ASSCodec ID/Info : Advanced Sub Station AlphaDuration : 20 min 59 sBit rate : 89 b/sCount of elements : 271Compression mode : LosslessStream size : 13.7 KiB (0%)Language : EnglishDefault : YesForced : No
Menu00:00:00.000 : :Product Introduction00:00:55.200 : :Opening00:04:10.900 : :Oten-dono's Proposal00:07:25.500 : :What's a "date?"00:10:29.400 : :Cafe by the Ocean00:13:39.800 : :Shinobimaru's Dating Tips00:15:21.000 : :Bandit Fight00:18:20.500 : :Kennosuke-sama Leaves for his Date00:19:47.800 : :Credits

Скриншоты

Вы не можете начинать темы
Вы не можете отвечать на сообщения
Вы не можете редактировать свои сообщения
Вы не можете удалять свои сообщения
Вы не можете голосовать в опросах
Вы не можете прикреплять файлы к сообщениям
Вы можете скачивать файлы
!ВНИМАНИЕ!

Сайт не предоставляет электронные версии произведений, а занимается лишь коллекционированием и каталогизацией ссылок, присылаемых и публикуемых на форуме нашими читателями. Если вы являетесь правообладателем какого-либо представленного материала и не желаете, чтобы ссылка на него находилась в нашем каталоге, свяжитесь с нами, и мы незамедлительно удалим ее. Файлы для обмена на трекере предоставлены пользователями сайта, и администрация не несет ответственности за их содержание. Просьба не заливать файлы, защищенные авторскими правами, а также файлы нелегального содержания!

Искали программы, игры, дополнения, музыка mp3, аниме, аудио книги, журналы? Добро пожаловать на свободный торрент трекер Torrents, у нас можно скачать бесплатно, без смс и регистрации и прочих ограничений лучшие, отборные сборки программ, игр. Скачать торрентом не составит труда даже не опытному пользователю. Раздачи ежедневно обновляются, только лучшие и качественные раздачи, подробные описания и скриншоты. Огромная коллекция программ для работы со звуком, графикой, дизайном, а так же множество плагинов и инструментов к ним с подробной инструкцией и рекомендациями. Прошивки для навигаторов, карты. Разнообразные игры, для Windows, Linux. В коллекцие есть и старые игры любых жанров, Rpg, Action, Shooter, strategy Множество дополнений, модификаций, сценариев для популярных игр в жанре экш, рпг, гонки, стратегии, логические игры. Множество аддонов и сценариев для Microsoft Flight Simulator Большая коллекция книг, учебников. Если нет возможности купить печатное издание - смело скачивайте цифровую версию книги или, быть может, журнала. Не любите читать - можно загрузить бесплатно аудикнигу. Для веб дизайнеров и программистов так же найдется множество специализированного софта, таких как: редакторы с подсветкой, среды программирования, компоненты, системы управления базами данных, разнообразные скрипты и шаблоны. Не так давно у нас появился материал для автолюбителей и владельцев мото - оригинальные и неоригинальные каталоги запчастей, книги и журналы по ремонту и обслуживанию, видеоуроки, статьи по чип тюнингу, прошивкам. Процедура получения контента элементарная, достаточно просто скачать торрент файл и добавить его в загрузку в вашем торрент клиенте. Если у вас нет специального торрент клиента, вы можете его скачать у нас.