Что нашло на секретаря Ким? / Что случилось с секретарём Ким? / What’s Wrong With Secretary Kim? / Kimbiseoga Wae Geureolgga [16/16] [2018, бизнес, романтика, HDTVRip] [RAW] [720p] DVO (Храм Дорам ТВ) 

Цитировать
Что случилось с секретарём Ким? / Что нашло на секретаря Ким? / What’s Wrong With Secretary Kim? / Kimbiseoga Wae Geureolgga
Страна: Южная Корея
Год выпуска: 2018
Жанр: бизнес, романтика
Продолжительность: 16 х ~01:05:00
Режиссер: Чжун Хва Пак
В ролях: Со Чжун Пак, Мин Ён Пак, Тэ Хван Ли, Бён Ок Ким, Хе Ок Ким, Ки Ён Кан, Чан Сон Хван, Е Чжин Пё, Ю Чжун Ли, Бо Ра Хван, Чон Мин Ли, Чон Ун Ким, Хон Сок Кан, Е Вон Ким, Чжи Юн Хон, Со Мин Чон, Мин Ки Ли, Ю Ми Чон, Бён Ын Пак, Док Хён Чо
Перевод: Любительский двухголосый
автор перевода: Фансаб-группа АЗАЛИИ - озвучка группы ВК: Храм Дорам ТВ
Описание:
История отношений Ли Ён Джуна (Пак Со Джун), красивого, умного, высокомерного, богатого наследника и вице-президента "Юиль Груп" и Ким Ми Со (Пак Мин Ён), секретаря с девятилетним стажем. Ли Ён Джун – идеальный со всех сторон парень с высоким интеллектом, однако из-за его нарциссизма совместная работа с ним становится невыносимой и она решает уволиться.
Роли озвучивали: Olyushka, Ruben Mendez
За перевод благодарим: Фансаб-группа АЗАЛИИ
озвучка группы ВК: Храм Дорам ТВ

Отличия

http://rutracker.org/forum/viewtopic.php?t=5571755 - альтернативная озвучка (HH)
http://rutracker.org/forum/viewtopic.php?t=5572477 - альтернативная озвучка (SB)
Неотключаемые субтитры: Без хардсаба
Русские субтитры: Нет
Оригинальная аудиодорожка: Нет
Качество видео: HDTVRip
Разрешение: 720p
Видео кодек: H264
Формат: mp4
Видео: AVC, 1280х720, ~2700 Кбит/с, 30,000 fps
Аудио: AAC, 256 Kbps, 2 ch, 44.1 KHz, Язык Русский (в составе контейнера)

MI

Общее
Полное имя : U:\[Корейские сериалы]\000\Что не так с секретарём Ким [Храм Дорам_ТВ]\Что не так с секретарём Ким 08_720.mp4
Формат : MPEG-4
Профиль формата : Base Media
Идентификатор кодека : isom (isom/iso2/avc1/mp41)
Размер файла : 1,46 Гбайт
Продолжительность : 1 ч. 10 м.
Общий поток : 2965 Кбит/сек
Программа кодирования : Lavf57.83.100
Видео
Идентификатор : 1
Формат : AVC
Формат/Информация : Advanced Video Codec
Профиль формата : High@L3.1
Настройки формата : CABAC / 4 Ref Frames
Параметр CABAC формата : Да
Параметр RefFrames формата : 4 кадра
Параметр GOP формата : M=1, N=90
Идентификатор кодека : avc1
Идентификатор кодека/Информация : Advanced Video Coding
Продолжительность : 1 ч. 10 м.
Duration_FirstFrame : 46 мс.
Битрейт : 2705 Кбит/сек
Ширина : 1280 пикселей
Высота : 720 пикселей
Соотношение сторон : 16:9
Режим частоты кадров : Постоянный
Частота кадров : 30,000 кадров/сек
Цветовое пространство : YUV
Субдискретизация насыщенности : 4:2:0
Битовая глубина : 8 бит
Тип развёртки : Прогрессивная
Бит/(Пиксели*Кадры) : 0.098
Размер потока : 1,33 Гбайт (91%)
Библиотека кодирования : x264 core 152 r2851 ba24899
Настройки программы : cabac=1 / ref=4 / deblock=1:2:2 / analyse=0x3:0x113 / me=hex / subme=2 / psy=1 / psy_rd=1.00:0.00 / mixed_ref=1 / me_range=16 / chroma_me=1 / trellis=0 / 8x8dct=1 / cqm=0 / deadzone=21,11 / fast_pskip=1 / chroma_qp_offset=0 / threads=22 / lookahead_threads=5 / sliced_threads=0 / nr=0 / decimate=1 / interlaced=0 / bluray_compat=0 / constrained_intra=0 / bframes=0 / weightp=2 / keyint=90 / keyint_min=9 / scenecut=0 / intra_refresh=0 / rc_lookahead=40 / rc=abr / mbtree=1 / bitrate=2705 / ratetol=1.0 / qcomp=0.60 / qpmin=10 / qpmax=51 / qpstep=4 / ip_ratio=0.91 / aq=1:1.00
Дата пометки : UTC 2018-07-16 09:30:35
Аудио
Идентификатор : 2
Формат : AAC
Формат/Информация : Advanced Audio Codec
Профиль формата : LC
Идентификатор кодека : mp4a-40-2
Продолжительность : 1 ч. 10 м.
Duration_LastFrame : -8 мс.
Вид битрейта : Постоянный
Битрейт : 256 Кбит/сек
Каналы : 2 канала
Расположение каналов : Front: L R
Частота : 44,1 КГц
Частота кадров : 43,066 кадра/сек (1024 SPF)
Метод сжатия : С потерями
Размер потока : 129 Мбайт (9%)
Default : Да
AlternateGroup/String : 1
Дата пометки : UTC 2018-07-16 09:30:35
Вы не можете начинать темы
Вы не можете отвечать на сообщения
Вы не можете редактировать свои сообщения
Вы не можете удалять свои сообщения
Вы не можете голосовать в опросах
Вы не можете прикреплять файлы к сообщениям
Вы можете скачивать файлы
!ВНИМАНИЕ!

Сайт не предоставляет электронные версии произведений, а занимается лишь коллекционированием и каталогизацией ссылок, присылаемых и публикуемых на форуме нашими читателями. Если вы являетесь правообладателем какого-либо представленного материала и не желаете, чтобы ссылка на него находилась в нашем каталоге, свяжитесь с нами, и мы незамедлительно удалим ее. Файлы для обмена на трекере предоставлены пользователями сайта, и администрация не несет ответственности за их содержание. Просьба не заливать файлы, защищенные авторскими правами, а также файлы нелегального содержания!

Искали программы, игры, дополнения, музыка mp3, аниме, аудио книги, журналы? Добро пожаловать на свободный торрент трекер Torrents, у нас можно скачать бесплатно, без смс и регистрации и прочих ограничений лучшие, отборные сборки программ, игр. Скачать торрентом не составит труда даже не опытному пользователю. Раздачи ежедневно обновляются, только лучшие и качественные раздачи, подробные описания и скриншоты. Огромная коллекция программ для работы со звуком, графикой, дизайном, а так же множество плагинов и инструментов к ним с подробной инструкцией и рекомендациями. Прошивки для навигаторов, карты. Разнообразные игры, для Windows, Linux. В коллекцие есть и старые игры любых жанров, Rpg, Action, Shooter, strategy Множество дополнений, модификаций, сценариев для популярных игр в жанре экш, рпг, гонки, стратегии, логические игры. Множество аддонов и сценариев для Microsoft Flight Simulator Большая коллекция книг, учебников. Если нет возможности купить печатное издание - смело скачивайте цифровую версию книги или, быть может, журнала. Не любите читать - можно загрузить бесплатно аудикнигу. Для веб дизайнеров и программистов так же найдется множество специализированного софта, таких как: редакторы с подсветкой, среды программирования, компоненты, системы управления базами данных, разнообразные скрипты и шаблоны. Не так давно у нас появился материал для автолюбителей и владельцев мото - оригинальные и неоригинальные каталоги запчастей, книги и журналы по ремонту и обслуживанию, видеоуроки, статьи по чип тюнингу, прошивкам. Процедура получения контента элементарная, достаточно просто скачать торрент файл и добавить его в загрузку в вашем торрент клиенте. Если у вас нет специального торрент клиента, вы можете его скачать у нас.