Майами Ганз / Miami Guns (Кояма Ёситака) [TV] [13 из 13] [без хардсаба] [JAP+SUB] [2000, приключения, комедия, этти, DVDRip] 

Цитировать
Майами Ганз / Miami Guns- Страна: Япония
Год выпуска: 2000
Жанр: приключения, комедия, этти
Тип: TV
Продолжительность: 13 эп. по ~25 мин-Режиссёр: Кояма Ёситака
Автор оригинала: Момосэ Такэаки
Снято по манге: Miami Guns
Студия: Group TAC-Без озвучки-Субтитры:
русские (внешние) SRT полные
от Romano & Sora_P3_Heaven-Описание: 9 июля 1999 года планета Земля была практически уничтожена пришельцами. Но, к счастью, все самые богатые и предприимчивые жители вышли в открытый космос и переждали катастрофу там. Когда все улеглось, они вернулись и, к своему удивлению, обнаружили выживших. Через несколько десятилетий на руинах цивилизации был возведен город Miami Metropolis, ничем не отличающийся от современных городов. И все бы ничего, если бы в нем не зашкаливал уровень преступности. Но так не могло продолжаться вечно. Miami Guns - это частный отряд полиции, сформированный богатеями города из головорезов, которых хлебом не корми, дай пострелять. В нем найдется место каждому: фотограф, знакомый с оптикой, будет снайпером, вуайерист, старающийся "не светиться", - шпионом, шаман, говорящий с духами - осведомителем. Самыми яркими представителями новой полиции стали две девушки: фигуристая сорвиголова Сакуракожи Яо, дочь мультимиллионера, и рассудительная тихоня Амано Лу, дочь шефа полиции. Подписываясь на самые тяжелые задания, они быстро решают встающие перед городом проблемы. Груды развалин после них? Что ж, это уже издержки профессии...-Информационные ссылки: AniDB | MyAnimeList | World Art-Качество: DVDRip (US DVD)
Релиз/Автор рипа: Эйpан
Совместимость с бытовыми плеерами: Нет
Наличие линковки: Нет
Тип видео: без хардсаба
Формат: MKV
Видео: x264, 768x576, (4/3), ~2300кбит/с, 23.976fps, 10 bit
Аудио: японская - AC3, 2 ch, 192кбит/с, 48000Hz-

Информация о релизе

Рип сделал Эйpан, используя скрипт кодирования от Urotsuki.
Звук оригинальный, без перекодирования, с убранной задержкой.
Американских DVD (R2 найти так и не удалось), предоставил Tuzik55555, за что ему отдельное спасибо.
-

Инструкция по просмотру

* Чтобы смотреть 10-битное видео (10bit), необходимо, исходя из ваших предпочтений используемого проигрывателя, воспользоваться
этой инструкцией.
* Чтобы смотреть с субтитрами, необходимо из папки Rus subs переписать файлы в папку, где находятся видеофайлы. В большинстве плееров, одноимённые субтитры подключатся автоматически.
-

Список эпизодов

01. The Miami Bank Robbery
02. All About The Miami Guns!
03. Spy! Miami Girls School
04. Miami Mountain Pass GO! GO! GO!
05. The Gunman With A Little Alligator
06. Watermelon Bomb!
07. Princess Nokemono
08. The Sea! Bikinis! Ghosts!
09. Ten Million Miami Dollar Woman
10. Zenigeba Deka R
11. Burning Plan of Revenge
12. Shameless Guerrilla
13. Goodbye, Miami Guns!?
-

Отличия

http://rutracker.org/forum/viewtopic.php?t=1025584
http://rutracker.org/forum/viewtopic.php?t=3698365
- лучше качество видео

Сравнения

Тут
-Там
-

Скриншоты

-

MediaInfo

Общее
Уникальный идентификатор : 238396893704463620633998198346961080180 (0xB3599255E9CD3EA2AC9CD5491EC34F74)
Полное имя : C:\Торенты №1\Miami Guns [DVDRip 576p]\Miami Guns - 07.mkv
Формат : Matroska
Версия формата : Version 4 / Version 2
Размер файла : 467 Мбайт
Продолжительность : 25 м.
Общий поток : 2540 Кбит/сек
Дата кодирования : UTC 2018-04-27 14:07:56
Программа кодирования : mkvmerge v8.3.0 ('Over the Horizon') 64bit
Библиотека кодирования : libebml v1.3.1 + libmatroska v1.4.2
Видео
Идентификатор : 1
Формат : AVC
Формат/Информация : Advanced Video Codec
Профиль формата : High [email protected]
Параметр CABAC формата : Да
Параметр ReFrames формата : 9 кадров
Идентификатор кодека : V_MPEG4/ISO/AVC
Продолжительность : 25 м.
Битрейт : 2344 Кбит/сек
Ширина : 768 пикселей
Высота : 576 пикселей
Соотношение сторон : 4:3
Режим частоты кадров : Переменный
Частота кадров : 24,802 кадров/сек
Цветовое пространство : YUV
Субдискретизация насыщенности : 4:2:0
Битовая глубина : 10 бит
Тип развёртки : Прогрессивная
Бит/(Пиксели*Кадры) : 0.214
Размер потока : 431 Мбайт (92%)
Библиотека кодирования : x264 core 152 r2851kMod ba24899
Настройки программы : cabac=1 / ref=9 / deblock=1:1:-1 / analyse=0x3:0x113 / me=umh / subme=9 / psy=1 / fade_compensate=0.00 / psy_rd=1.00:0.00 / mixed_ref=1 / me_range=32 / chroma_me=1 / trellis=2 / 8x8dct=1 / cqm=0 / deadzone=21,11 / fast_pskip=1 / chroma_qp_offset=-2 / threads=6 / lookahead_threads=1 / sliced_threads=0 / nr=0 / decimate=1 / interlaced=0 / bluray_compat=0 / constrained_intra=0 / bframes=9 / b_pyramid=2 / b_adapt=2 / b_bias=0 / direct=1 / weightb=1 / open_gop=0 / weightp=2 / keyint=250 / keyint_min=24 / scenecut=40 / intra_refresh=0 / rc=crf / mbtree=0 / crf=15.5000 / qcomp=0.72 / qpmin=0 / qpmax=81 / qpstep=4 / ip_ratio=1.40 / pb_ratio=1.30 / aq=1:1.00
Default : Да
Forced : Нет
Цветовой диапазон : Limited
Основные цвета : BT.601 NTSC
Характеристики трансфера : BT.601
Коэффициенты матрицы : BT.601
Аудио
Идентификатор : 2
Формат : AC-3
Формат/Информация : Audio Coding 3
Расширение режима : CM (complete main)
Параметр Endianness формата : Big
Идентификатор кодека : A_AC3
Продолжительность : 25 м.
Вид битрейта : Постоянный
Битрейт : 192 Кбит/сек
Каналы : 2 канала
Расположение каналов : Front: L R
Частота : 48,0 КГц
Частота кадров : 31,250 кадров/сек (1536 spf)
Метод сжатия : С потерями
Размер потока : 35,3 Мбайт (8%)
Язык : Japanese
Default : Да
Forced : Нет
-
Вы не можете начинать темы
Вы не можете отвечать на сообщения
Вы не можете редактировать свои сообщения
Вы не можете удалять свои сообщения
Вы не можете голосовать в опросах
Вы не можете прикреплять файлы к сообщениям
Вы можете скачивать файлы
!ВНИМАНИЕ!

Сайт не предоставляет электронные версии произведений, а занимается лишь коллекционированием и каталогизацией ссылок, присылаемых и публикуемых на форуме нашими читателями. Если вы являетесь правообладателем какого-либо представленного материала и не желаете, чтобы ссылка на него находилась в нашем каталоге, свяжитесь с нами, и мы незамедлительно удалим ее. Файлы для обмена на трекере предоставлены пользователями сайта, и администрация не несет ответственности за их содержание. Просьба не заливать файлы, защищенные авторскими правами, а также файлы нелегального содержания!

Искали программы, игры, дополнения, музыка mp3, аниме, аудио книги, журналы? Добро пожаловать на свободный торрент трекер Torrents, у нас можно скачать бесплатно, без смс и регистрации и прочих ограничений лучшие, отборные сборки программ, игр. Скачать торрентом не составит труда даже не опытному пользователю. Раздачи ежедневно обновляются, только лучшие и качественные раздачи, подробные описания и скриншоты. Огромная коллекция программ для работы со звуком, графикой, дизайном, а так же множество плагинов и инструментов к ним с подробной инструкцией и рекомендациями. Прошивки для навигаторов, карты. Разнообразные игры, для Windows, Linux. В коллекцие есть и старые игры любых жанров, Rpg, Action, Shooter, strategy Множество дополнений, модификаций, сценариев для популярных игр в жанре экш, рпг, гонки, стратегии, логические игры. Множество аддонов и сценариев для Microsoft Flight Simulator Большая коллекция книг, учебников. Если нет возможности купить печатное издание - смело скачивайте цифровую версию книги или, быть может, журнала. Не любите читать - можно загрузить бесплатно аудикнигу. Для веб дизайнеров и программистов так же найдется множество специализированного софта, таких как: редакторы с подсветкой, среды программирования, компоненты, системы управления базами данных, разнообразные скрипты и шаблоны. Не так давно у нас появился материал для автолюбителей и владельцев мото - оригинальные и неоригинальные каталоги запчастей, книги и журналы по ремонту и обслуживанию, видеоуроки, статьи по чип тюнингу, прошивкам. Процедура получения контента элементарная, достаточно просто скачать торрент файл и добавить его в загрузку в вашем торрент клиенте. Если у вас нет специального торрент клиента, вы можете его скачать у нас.