(Dubstep / Glitch-Hop) [CD] The Glitch Mob - See Without Eyes - 2018, FLAC (tracks+.cue), lossless 

Цитировать
The Glitch Mob / See Without Eyes
Жанр: Dubstep / Glitch-Hop
Носитель: CD
Год издания: 2018
Издатель (лейбл): Glass Air Records
Номер по каталогу: GA024
Страна исполнителя (группы): USA
Аудиокодек: FLAC (*.flac)
Тип рипа: tracks+.cue
Битрейт аудио: lossless
Продолжительность: 00:49:54
Источник (релизер): REDACTED, bladerunner
Наличие сканов в содержимом раздачи: нет
Треклист:
01. Enter Formless (Feat. Rituals Of Mine) (04:40)
02. Take Me With You (Feat. Arama) (05:40)
03. Disintegrate Slowly (04:35)
04. Keep On Breathing (Feat. Tula) (03:12)
05. Come Closer (05:26)
06. I Could Be Anything (Feat. Elohim) (04:09)
07. Interbeing (03:00)
08. How Could This Be Wrong (Feat. Tula) (04:49)
09. Go Light (04:59)
10. How Do I Get To Invincible (Feat. Ambré) (03:59)
11. Way Out Is In (05:16)

Лог создания рипа

Exact Audio Copy V1.3 from 2. September 2016
EAC extraction logfile from 9. May 2018, 2:22
The Glitch Mob / See Without Eyes
Used drive : MATSHITADVD-RAM UJ8E2 S Adapter: 1 ID: 0
Read mode : SecureUtilize accurate stream : YesDefeat audio cache : YesMake use of C2 pointers : No
Read offset correction : 103Overread into Lead-In and Lead-Out : NoFill up missing offset samples with silence : YesDelete leading and trailing silent blocks : NoNull samples used in CRC calculations : YesUsed interface : Native Win32 interface for Win NT & 2000Gap handling : Appended to previous track
Used output format : User Defined EncoderSelected bitrate : 1024 kBit/sQuality : HighAdd ID3 tag : NoCommand line compressor : C:\Program Files (x86)\Exact Audio Copy\Flac\flac.exeAdditional command line options : -8 -e -p -V -T "ARTIST=%artist%" -T "TITLE=%title%" -T "ALBUM=%albumtitle%" -T "DATE=%year%" -T "TRACKNUMBER=%tracknr%" -T "GENRE=%genre%" -T "PERFORMER=%albuminterpret%" -T "COMPOSER=%composer%" %haslyrics%--tag-from-file=LYRICS="%lyricsfile%"%haslyrics% -T "ALBUMARTIST=%albumartist%" -T "DISCNUMBER=%cdnumber%" -T "TOTALDISCS=%totalcds%" -T "TOTALTRACKS=%numtracks%" -T "COMMENT=%comment%" %source% -o %dest%
TOC of the extracted CD
Track | Start | Length | Start sector | End sector --------------------------------------------------------- 1 | 0:00.00 | 4:43.45 | 0 | 21269 2 | 4:43.45 | 5:42.56 | 21270 | 46975 3 | 10:26.26 | 4:37.74 | 46976 | 67824 4 | 15:04.25 | 3:14.67 | 67825 | 82441 5 | 18:19.17 | 5:28.32 | 82442 | 107073 6 | 23:47.49 | 4:11.74 | 107074 | 125972 7 | 27:59.48 | 3:02.30 | 125973 | 139652 8 | 31:02.03 | 4:51.29 | 139653 | 161506 9 | 35:53.32 | 5:01.47 | 161507 | 184128 10 | 40:55.04 | 4:01.25 | 184129 | 202228 11 | 44:56.29 | 5:17.46 | 202229 | 226049
Track 1
Filename S:\Upload\EAC\ZAPAHGARY\The Glitch Mob - See Without Eyes (2018)(FLAC)(CD)\01 Enter Formless.wav
Pre-gap length 0:00:02.00
Peak level 96.6 % Extraction speed 1.6 X Track quality 100.0 % Test CRC E55D7C84 Copy CRC E55D7C84 Track not present in AccurateRip database Copy OK
Track 2
Filename S:\Upload\EAC\ZAPAHGARY\The Glitch Mob - See Without Eyes (2018)(FLAC)(CD)\02 Take Me with You.wav
Pre-gap length 0:00:02.00
Peak level 96.6 % Extraction speed 1.8 X Track quality 100.0 % Test CRC 6D604E2C Copy CRC 6D604E2C Track not present in AccurateRip database Copy OK
Track 3
Filename S:\Upload\EAC\ZAPAHGARY\The Glitch Mob - See Without Eyes (2018)(FLAC)(CD)\03 Disintegrate Slowly.wav
Pre-gap length 0:00:02.00
Peak level 96.6 % Extraction speed 1.9 X Track quality 100.0 % Test CRC 8130D6C7 Copy CRC 8130D6C7 Track not present in AccurateRip database Copy OK
Track 4
Filename S:\Upload\EAC\ZAPAHGARY\The Glitch Mob - See Without Eyes (2018)(FLAC)(CD)\04 Keep on Breathing.wav
Pre-gap length 0:00:02.00
Peak level 96.6 % Extraction speed 1.7 X Track quality 99.9 % Test CRC 4A94E17D Copy CRC 4A94E17D Track not present in AccurateRip database Copy OK
Track 5
Filename S:\Upload\EAC\ZAPAHGARY\The Glitch Mob - See Without Eyes (2018)(FLAC)(CD)\05 Come Closer.wav
Pre-gap length 0:00:02.00
Peak level 96.6 % Extraction speed 2.2 X Track quality 100.0 % Test CRC 29574A25 Copy CRC 29574A25 Track not present in AccurateRip database Copy OK
Track 6
Filename S:\Upload\EAC\ZAPAHGARY\The Glitch Mob - See Without Eyes (2018)(FLAC)(CD)\06 I Could Be Anything.wav
Pre-gap length 0:00:02.00
Peak level 96.6 % Extraction speed 2.0 X Track quality 99.9 % Test CRC 728E9DDF Copy CRC 728E9DDF Track not present in AccurateRip database Copy OK
Track 7
Filename S:\Upload\EAC\ZAPAHGARY\The Glitch Mob - See Without Eyes (2018)(FLAC)(CD)\07 Interbeing.wav
Pre-gap length 0:00:02.00
Peak level 96.6 % Extraction speed 2.2 X Track quality 100.0 % Test CRC 490C5415 Copy CRC 490C5415 Track not present in AccurateRip database Copy OK
Track 8
Filename S:\Upload\EAC\ZAPAHGARY\The Glitch Mob - See Without Eyes (2018)(FLAC)(CD)\08 How Could This Be Wrong.wav
Pre-gap length 0:00:02.00
Peak level 96.6 % Extraction speed 2.5 X Track quality 100.0 % Test CRC 1ACB0373 Copy CRC 1ACB0373 Track not present in AccurateRip database Copy OK
Track 9
Filename S:\Upload\EAC\ZAPAHGARY\The Glitch Mob - See Without Eyes (2018)(FLAC)(CD)\09 Go Light.wav
Pre-gap length 0:00:02.00
Peak level 96.6 % Extraction speed 2.6 X Track quality 100.0 % Test CRC 99BEA11C Copy CRC 99BEA11C Track not present in AccurateRip database Copy OK
Track 10
Filename S:\Upload\EAC\ZAPAHGARY\The Glitch Mob - See Without Eyes (2018)(FLAC)(CD)\10 How Do I Get to Invincible.wav
Pre-gap length 0:00:02.00
Peak level 96.6 % Extraction speed 2.3 X Track quality 99.9 % Test CRC F05A2A1A Copy CRC F05A2A1A Track not present in AccurateRip database Copy OK
Track 11
Filename S:\Upload\EAC\ZAPAHGARY\The Glitch Mob - See Without Eyes (2018)(FLAC)(CD)\11 Way out is In.wav
Pre-gap length 0:00:02.00
Peak level 96.6 % Extraction speed 2.8 X Track quality 100.0 % Test CRC 689AD4A9 Copy CRC 689AD4A9 Track not present in AccurateRip database Copy OK
None of the tracks are present in the AccurateRip database
No errors occurred
End of status report
---- CUETools DB Plugin V2.1.6
[CTDB TOCID: 3NlVjyR5e3ontHGz80d2pYmiHnQ-] disk not present in databaseSubmit result: 3NlVjyR5e3ontHGz80d2pYmiHnQ- has been uploaded
==== Log checksum 45905158A812BAB2F6E29FED572D112CD8487844D7986F4CA8C3B915AFFAF1A5 ====

Содержание индексной карты (.CUE)

REM GENRE ElectronicREM DATE 2018REM DISCID 9E0BC60BREM COMMENT "ExactAudioCopy v1.3"PERFORMER "The Glitch Mob"TITLE "See Without Eyes"REM COMPOSER ""FILE "01 Enter Formless.wav" WAVE  TRACK 01 AUDIO    TITLE "Enter Formless"    PERFORMER "The Glitch Mob (feat. Rituals of Mine)"    REM COMPOSER ""    INDEX 01 00:00:00FILE "02 Take Me with You.wav" WAVE  TRACK 02 AUDIO    TITLE "Take Me with You"    PERFORMER "The Glitch Mob (feat. Arama)"    REM COMPOSER ""    INDEX 00 00:00:00    INDEX 01 00:02:00FILE "03 Disintegrate Slowly.wav" WAVE  TRACK 03 AUDIO    TITLE "Disintegrate Slowly"    PERFORMER "The Glitch Mob"    REM COMPOSER ""    INDEX 00 00:00:00    INDEX 01 00:02:00FILE "04 Keep on Breathing.wav" WAVE  TRACK 04 AUDIO    TITLE "Keep on Breathing"    PERFORMER "The Glitch Mob"    REM COMPOSER ""    INDEX 00 00:00:00    INDEX 01 00:02:00FILE "05 Come Closer.wav" WAVE  TRACK 05 AUDIO    TITLE "Come Closer"    PERFORMER "The Glitch Mob"    REM COMPOSER ""    INDEX 00 00:00:00    INDEX 01 00:02:00FILE "06 I Could Be Anything.wav" WAVE  TRACK 06 AUDIO    TITLE "I Could Be Anything"    PERFORMER "The Glitch Mob (feat. Elohim)"    REM COMPOSER ""    INDEX 00 00:00:00    INDEX 01 00:02:00FILE "07 Interbeing.wav" WAVE  TRACK 07 AUDIO    TITLE "Interbeing"    PERFORMER "The Glitch Mob"    REM COMPOSER ""    INDEX 00 00:00:00    INDEX 01 00:02:00FILE "08 How Could This Be Wrong.wav" WAVE  TRACK 08 AUDIO    TITLE "How Could This Be Wrong"    PERFORMER "The Glitch Mob (feat. Tula)"    REM COMPOSER ""    INDEX 00 00:00:00    INDEX 01 00:02:00FILE "09 Go Light.wav" WAVE  TRACK 09 AUDIO    TITLE "Go Light"    PERFORMER "The Glitch Mob"    REM COMPOSER ""    INDEX 00 00:00:00    INDEX 01 00:02:00FILE "10 How Do I Get to Invincible.wav" WAVE  TRACK 10 AUDIO    TITLE "How Do I Get to Invincible"    PERFORMER "The Glitch Mob (feat. Ambre)"    REM COMPOSER ""    INDEX 00 00:00:00    INDEX 01 00:02:00FILE "11 Way out is In.wav" WAVE  TRACK 11 AUDIO    TITLE "Way out is In"    PERFORMER "The Glitch Mob"    REM COMPOSER ""    INDEX 00 00:00:00    INDEX 01 00:02:00
Доп. информация: MP3
Вы не можете начинать темы
Вы не можете отвечать на сообщения
Вы не можете редактировать свои сообщения
Вы не можете удалять свои сообщения
Вы не можете голосовать в опросах
Вы не можете прикреплять файлы к сообщениям
Вы можете скачивать файлы
!ВНИМАНИЕ!

Сайт не предоставляет электронные версии произведений, а занимается лишь коллекционированием и каталогизацией ссылок, присылаемых и публикуемых на форуме нашими читателями. Если вы являетесь правообладателем какого-либо представленного материала и не желаете, чтобы ссылка на него находилась в нашем каталоге, свяжитесь с нами, и мы незамедлительно удалим ее. Файлы для обмена на трекере предоставлены пользователями сайта, и администрация не несет ответственности за их содержание. Просьба не заливать файлы, защищенные авторскими правами, а также файлы нелегального содержания!

Искали программы, игры, дополнения, музыка mp3, аниме, аудио книги, журналы? Добро пожаловать на свободный торрент трекер Torrents, у нас можно скачать бесплатно, без смс и регистрации и прочих ограничений лучшие, отборные сборки программ, игр. Скачать торрентом не составит труда даже не опытному пользователю. Раздачи ежедневно обновляются, только лучшие и качественные раздачи, подробные описания и скриншоты. Огромная коллекция программ для работы со звуком, графикой, дизайном, а так же множество плагинов и инструментов к ним с подробной инструкцией и рекомендациями. Прошивки для навигаторов, карты. Разнообразные игры, для Windows, Linux. В коллекцие есть и старые игры любых жанров, Rpg, Action, Shooter, strategy Множество дополнений, модификаций, сценариев для популярных игр в жанре экш, рпг, гонки, стратегии, логические игры. Множество аддонов и сценариев для Microsoft Flight Simulator Большая коллекция книг, учебников. Если нет возможности купить печатное издание - смело скачивайте цифровую версию книги или, быть может, журнала. Не любите читать - можно загрузить бесплатно аудикнигу. Для веб дизайнеров и программистов так же найдется множество специализированного софта, таких как: редакторы с подсветкой, среды программирования, компоненты, системы управления базами данных, разнообразные скрипты и шаблоны. Не так давно у нас появился материал для автолюбителей и владельцев мото - оригинальные и неоригинальные каталоги запчастей, книги и журналы по ремонту и обслуживанию, видеоуроки, статьи по чип тюнингу, прошивкам. Процедура получения контента элементарная, достаточно просто скачать торрент файл и добавить его в загрузку в вашем торрент клиенте. Если у вас нет специального торрент клиента, вы можете его скачать у нас.