(Drum&Bass, Dubstep) [CD] Koven - Retrospective (2018), FLAC (tracks+.cue), lossless 

Цитировать
Koven - Retrospective
Жанр: Drum&Bass, Dubstep
Носитель: CD
Страна-производитель диска (релиза): UK
Год издания: 2018
Издатель (лейбл): Viper Recordings
Номер по каталогу: VPRLP022CD
Аудиокодек: FLAC (*.flac)
Тип рипа: tracks+.cue
Битрейт аудио: lossless
Продолжительность: 01:08:35
Источник (релизер): waffles (whoppercarey)
Наличие сканов: нет
01. Koven – Another Home (VIP Mix)
02. Koven – Miracle (Club Mix)
03. Koven – Telling Me
04. Koven – Figure
05. Koven – From The Start (BMotion Remix)
06. Koven – Eternal And You (Muzzy Remix)
07. Koven – Get This Right
08. Koven – Lasting (Pt. 2)
09. Juventa feat. Erica Curran – Move Into Light (Koven Remix)
10. Koven & Memtrix – Pessimist (Insomniax Remix)
11. Koven – With You
12. Feint feat. Koven - Take It In (Hybrid Minds Remix)
13. Dabin & Koven – Revenant
14. Tritonal feat. Angel Taylor – Getaway (Koven Remix)
15. Hadouken! – Levitate (Koven Remix)

Лог создания рипа

Exact Audio Copy V1.3 from 2. September 2016
EAC extraction logfile from 13. March 2018, 19:17
Koven / Retrospective
Used drive : ASUS BC-12D1ST Adapter: 1 ID: 0
Read mode : SecureUtilize accurate stream : YesDefeat audio cache : YesMake use of C2 pointers : No
Read offset correction : 667Overread into Lead-In and Lead-Out : NoFill up missing offset samples with silence : YesDelete leading and trailing silent blocks : NoNull samples used in CRC calculations : YesUsed interface : Native Win32 interface for Win NT & 2000Gap handling : Appended to previous track
Used output format : User Defined EncoderSelected bitrate : 1024 kBit/sQuality : HighAdd ID3 tag : NoCommand line compressor : C:\Program Files (x86)\Exact Audio Copy\FLAC\FLAC.EXEAdditional command line options : -8 -e -V -T "ARTIST=%artist%" -T "TITLE=%title%" -T "ALBUM=%albumtitle%" -T "DATE=%year%" -T "TRACKNUMBER=%tracknr%" -T "GENRE=%genre%" -T "PERFORMER=%albuminterpret%" -T "COMPOSER=%composer%" %haslyrics%--tag-from-file=LYRICS="%lyricsfile%"%haslyrics% -T "ALBUMARTIST=%albumartist%" -T "DISCNUMBER=%cdnumber%" -T "TOTALDISCS=%totalcds%" -T "TOTALTRACKS=%numtracks%" -T "COMMENT=%comment%" %source% -o %dest%
TOC of the extracted CD
Track | Start | Length | Start sector | End sector --------------------------------------------------------- 1 | 0:00.00 | 4:48.24 | 0 | 21623 2 | 4:48.24 | 3:48.12 | 21624 | 38735 3 | 8:36.36 | 4:51.00 | 38736 | 60560 4 | 13:27.36 | 3:41.46 | 60561 | 77181 5 | 17:09.07 | 4:33.39 | 77182 | 97695 6 | 21:42.46 | 4:28.00 | 97696 | 117795 7 | 26:10.46 | 3:41.34 | 117796 | 134404 8 | 29:52.05 | 4:54.39 | 134405 | 156493 9 | 34:46.44 | 4:19.01 | 156494 | 175919 10 | 39:05.45 | 4:36.64 | 175920 | 196683 11 | 43:42.34 | 4:57.26 | 196684 | 218984 12 | 48:39.60 | 5:13.74 | 218985 | 242533 13 | 53:53.59 | 5:51.74 | 242534 | 268932 14 | 59:45.58 | 3:49.00 | 268933 | 286107 15 | 63:34.58 | 5:01.01 | 286108 | 308683
Track 1
Filename D:\EAC\Koven - Retrospective (2018) [FLAC]\01 - Koven - Another Home (VIP Mix).wav
Pre-gap length 0:00:02.00
Peak level 100.0 % Extraction speed 1.2 X Track quality 100.0 % Test CRC 0B0DFB30 Copy CRC 0B0DFB30 Track not present in AccurateRip database Copy OK
Track 2
Filename D:\EAC\Koven - Retrospective (2018) [FLAC]\02 - Koven - Miracle (Club Mix).wav
Peak level 99.1 % Extraction speed 1.3 X Track quality 100.0 % Test CRC 5E4CA7E7 Copy CRC 5E4CA7E7 Track not present in AccurateRip database Copy OK
Track 3
Filename D:\EAC\Koven - Retrospective (2018) [FLAC]\03 - Koven - Telling Me.wav
Peak level 100.0 % Extraction speed 1.5 X Track quality 100.0 % Test CRC AC458844 Copy CRC AC458844 Track not present in AccurateRip database Copy OK
Track 4
Filename D:\EAC\Koven - Retrospective (2018) [FLAC]\04 - Koven - Figure.wav
Peak level 100.0 % Extraction speed 1.5 X Track quality 100.0 % Test CRC 9552B83A Copy CRC 9552B83A Track not present in AccurateRip database Copy OK
Track 5
Filename D:\EAC\Koven - Retrospective (2018) [FLAC]\05 - Koven - From The Start (BMotion Remix).wav
Peak level 100.0 % Extraction speed 1.5 X Track quality 99.9 % Test CRC F7ED780D Copy CRC F7ED780D Track not present in AccurateRip database Copy OK
Track 6
Filename D:\EAC\Koven - Retrospective (2018) [FLAC]\06 - Koven - Eternal And You (Muzzy Remix).wav
Peak level 99.7 % Extraction speed 1.8 X Track quality 100.0 % Test CRC 54745530 Copy CRC 54745530 Track not present in AccurateRip database Copy OK
Track 7
Filename D:\EAC\Koven - Retrospective (2018) [FLAC]\07 - Koven - Get This Right.wav
Peak level 99.0 % Extraction speed 1.6 X Track quality 99.9 % Test CRC AF7032AC Copy CRC AF7032AC Track not present in AccurateRip database Copy OK
Track 8
Filename D:\EAC\Koven - Retrospective (2018) [FLAC]\08 - Koven - Lasting (Pt. 2).wav
Peak level 100.0 % Extraction speed 2.0 X Track quality 100.0 % Test CRC 67BBB3D0 Copy CRC 67BBB3D0 Track not present in AccurateRip database Copy OK
Track 9
Filename D:\EAC\Koven - Retrospective (2018) [FLAC]\09 - Juventa feat. Erica Curran - Move Into Light (Koven Remix).wav
Peak level 99.7 % Extraction speed 2.0 X Track quality 100.0 % Test CRC C9BDC4F6 Copy CRC C9BDC4F6 Track not present in AccurateRip database Copy OK
Track 10
Filename D:\EAC\Koven - Retrospective (2018) [FLAC]\10 - Koven & Memtrix - Pessimist (Insomniax Remix).wav
Peak level 100.0 % Extraction speed 1.9 X Track quality 99.9 % Test CRC F5CFFE7F Copy CRC F5CFFE7F Track not present in AccurateRip database Copy OK
Track 11
Filename D:\EAC\Koven - Retrospective (2018) [FLAC]\11 - Koven - With You.wav
Peak level 100.0 % Extraction speed 2.2 X Track quality 100.0 % Test CRC 499DEFF8 Copy CRC 499DEFF8 Track not present in AccurateRip database Copy OK
Track 12
Filename D:\EAC\Koven - Retrospective (2018) [FLAC]\12 - Feint feat. Koven - Take It In (Hybrid Minds Remix).wav
Peak level 97.7 % Extraction speed 2.3 X Track quality 100.0 % Test CRC 1C6C4C5B Copy CRC 1C6C4C5B Track not present in AccurateRip database Copy OK
Track 13
Filename D:\EAC\Koven - Retrospective (2018) [FLAC]\13 - Koven - Revenant.wav
Peak level 100.0 % Extraction speed 2.4 X Track quality 100.0 % Test CRC 4184800F Copy CRC 4184800F Track not present in AccurateRip database Copy OK
Track 14
Filename D:\EAC\Koven - Retrospective (2018) [FLAC]\14 - Tritonal feat. Angel Taylor - Getaway (Koven Remix).wav
Peak level 100.0 % Extraction speed 2.4 X Track quality 100.0 % Test CRC 1096CD37 Copy CRC 1096CD37 Track not present in AccurateRip database Copy OK
Track 15
Filename D:\EAC\Koven - Retrospective (2018) [FLAC]\15 - Hadouken! - Levitate (Koven Remix).wav
Peak level 100.0 % Extraction speed 2.5 X Track quality 100.0 % Test CRC C19D9EEF Copy CRC C19D9EEF Track not present in AccurateRip database Copy OK
None of the tracks are present in the AccurateRip database
No errors occurred
End of status report
---- CUETools DB Plugin V2.1.6
[CTDB TOCID: b0yOi5G1fr61c30efpP5TUxiVOs-] disk not present in databaseSubmit result: b0yOi5G1fr61c30efpP5TUxiVOs- has been uploaded
==== Log checksum 26DBA6B3DDDF1C9145053B2F5482ECA9B42FCD5AA6BDB23D18B9B8DBE1CB6479 ====

Содержание индексной карты (.CUE)

REM GENRE "Drum & Bass"REM DATE 2018REM DISCID D110130FREM COMMENT "ExactAudioCopy v1.3"PERFORMER "Koven"TITLE "Retrospective"REM COMPOSER ""FILE "01 - Koven - Another Home (VIP Mix).wav" WAVE  TRACK 01 AUDIO    TITLE "Another Home (VIP Mix)"    PERFORMER "Koven"    REM COMPOSER ""    INDEX 01 00:00:00FILE "02 - Koven - Miracle (Club Mix).wav" WAVE  TRACK 02 AUDIO    TITLE "Miracle (Club Mix)"    PERFORMER "Koven"    REM COMPOSER ""    INDEX 01 00:00:00FILE "03 - Koven - Telling Me.wav" WAVE  TRACK 03 AUDIO    TITLE "Telling Me"    PERFORMER "Koven"    REM COMPOSER ""    INDEX 01 00:00:00FILE "04 - Koven - Figure.wav" WAVE  TRACK 04 AUDIO    TITLE "Figure"    PERFORMER "Koven"    REM COMPOSER ""    INDEX 01 00:00:00FILE "05 - Koven - From The Start (BMotion Remix).wav" WAVE  TRACK 05 AUDIO    TITLE "From The Start (BMotion Remix)"    PERFORMER "Koven"    REM COMPOSER ""    INDEX 01 00:00:00FILE "06 - Koven - Eternal And You (Muzzy Remix).wav" WAVE  TRACK 06 AUDIO    TITLE "Eternal And You (Muzzy Remix)"    PERFORMER "Koven"    REM COMPOSER ""    INDEX 01 00:00:00FILE "07 - Koven - Get This Right.wav" WAVE  TRACK 07 AUDIO    TITLE "Get This Right"    PERFORMER "Koven"    REM COMPOSER ""    INDEX 01 00:00:00FILE "08 - Koven - Lasting (Pt. 2).wav" WAVE  TRACK 08 AUDIO    TITLE "Lasting (Pt. 2)"    PERFORMER "Koven"    REM COMPOSER ""    INDEX 01 00:00:00FILE "09 - Juventa feat. Erica Curran - Move Into Light (Koven Remix).wav" WAVE  TRACK 09 AUDIO    TITLE "Move Into Light (Koven Remix)"    PERFORMER "Juventa feat. Erica Curran"    REM COMPOSER ""    INDEX 01 00:00:00FILE "10 - Koven & Memtrix - Pessimist (Insomniax Remix).wav" WAVE  TRACK 10 AUDIO    TITLE "Pessimist (Insomniax Remix)"    PERFORMER "Koven & Memtrix"    REM COMPOSER ""    INDEX 01 00:00:00FILE "11 - Koven - With You.wav" WAVE  TRACK 11 AUDIO    TITLE "With You"    PERFORMER "Koven"    REM COMPOSER ""    INDEX 01 00:00:00FILE "12 - Feint feat. Koven - Take It In (Hybrid Minds Remix).wav" WAVE  TRACK 12 AUDIO    TITLE "Take It In (Hybrid Minds Remix)"    PERFORMER "Feint feat. Koven"    REM COMPOSER ""    INDEX 01 00:00:00FILE "13 - Koven - Revenant.wav" WAVE  TRACK 13 AUDIO    TITLE "Revenant"    PERFORMER "Koven"    REM COMPOSER ""    INDEX 01 00:00:00FILE "14 - Tritonal feat. Angel Taylor - Getaway (Koven Remix).wav" WAVE  TRACK 14 AUDIO    TITLE "Getaway (Koven Remix)"    PERFORMER "Tritonal feat. Angel Taylor"    REM COMPOSER ""    INDEX 01 00:00:00FILE "15 - Hadouken! - Levitate (Koven Remix).wav" WAVE  TRACK 15 AUDIO    TITLE "Levitate (Koven Remix)"    PERFORMER "Hadouken!"    REM COMPOSER ""    INDEX 01 00:00:00
Вы не можете начинать темы
Вы не можете отвечать на сообщения
Вы не можете редактировать свои сообщения
Вы не можете удалять свои сообщения
Вы не можете голосовать в опросах
Вы не можете прикреплять файлы к сообщениям
Вы можете скачивать файлы
!ВНИМАНИЕ!

Сайт не предоставляет электронные версии произведений, а занимается лишь коллекционированием и каталогизацией ссылок, присылаемых и публикуемых на форуме нашими читателями. Если вы являетесь правообладателем какого-либо представленного материала и не желаете, чтобы ссылка на него находилась в нашем каталоге, свяжитесь с нами, и мы незамедлительно удалим ее. Файлы для обмена на трекере предоставлены пользователями сайта, и администрация не несет ответственности за их содержание. Просьба не заливать файлы, защищенные авторскими правами, а также файлы нелегального содержания!

Искали программы, игры, дополнения, музыка mp3, аниме, аудио книги, журналы? Добро пожаловать на свободный торрент трекер Torrents, у нас можно скачать бесплатно, без смс и регистрации и прочих ограничений лучшие, отборные сборки программ, игр. Скачать торрентом не составит труда даже не опытному пользователю. Раздачи ежедневно обновляются, только лучшие и качественные раздачи, подробные описания и скриншоты. Огромная коллекция программ для работы со звуком, графикой, дизайном, а так же множество плагинов и инструментов к ним с подробной инструкцией и рекомендациями. Прошивки для навигаторов, карты. Разнообразные игры, для Windows, Linux. В коллекцие есть и старые игры любых жанров, Rpg, Action, Shooter, strategy Множество дополнений, модификаций, сценариев для популярных игр в жанре экш, рпг, гонки, стратегии, логические игры. Множество аддонов и сценариев для Microsoft Flight Simulator Большая коллекция книг, учебников. Если нет возможности купить печатное издание - смело скачивайте цифровую версию книги или, быть может, журнала. Не любите читать - можно загрузить бесплатно аудикнигу. Для веб дизайнеров и программистов так же найдется множество специализированного софта, таких как: редакторы с подсветкой, среды программирования, компоненты, системы управления базами данных, разнообразные скрипты и шаблоны. Не так давно у нас появился материал для автолюбителей и владельцев мото - оригинальные и неоригинальные каталоги запчастей, книги и журналы по ремонту и обслуживанию, видеоуроки, статьи по чип тюнингу, прошивкам. Процедура получения контента элементарная, достаточно просто скачать торрент файл и добавить его в загрузку в вашем торрент клиенте. Если у вас нет специального торрент клиента, вы можете его скачать у нас.