(Dark Ambient, Broken Beat, IDM, Downtempo, Breakbeat, Drum & Bass, Dubstep, Jungle) [WEB] Shadow of the Beat - The Shadow Vault, [Uncanny Planet Records — UP 016] - 2008, FLAC (tracks), lossless 

Цитировать
Shadow of the Beat — The Shadow Vault (2008, Uncanny Planet Records)-
Жанр: Electronic
Стиль: Dark Ambient, Broken Beat, IDM, Downtempo, Breakbeat, Drum & Bass, Dubstep, Jungle, Chiptune
Тип издания: WEB
Год издания: 2008
Издатель (лейбл): Uncanny Planet Records
Номер по каталогу: UP 016
Страна исполнителя (группы): Norway
Аудиокодек: FLAC (*.flac)
Тип рипа: tracks
Продолжительность: 00:57:48
Источник: bandcamp
Наличие сканов в содержимом раздачи: нет
-Треклист:
1. Shadow of the Beat - Scared Away [07:20]
2. Shadow of the Beat - Back Of A Cab [05:31]
3. Shadow of the Beat - Chilly [04:41]
4. Shadow of the Beat - Neural Battlefront [06:29]
5. Shadow of the Beat - Underground Biogenetic Facility [03:25]
6. Shadow of the Beat - Intruders [06:58]
7. Shadow of the Beat - Necrotica [04:28]
8. Shadow of the Beat - Nemesis (Live) [04:26]
9. Shadow of the Beat - SXYaleetet [02:51]
10. Shadow of the Beat - My When Clones I Am Out Many [02:48]
11. Shadow of the Beat - Wastelands [05:56]
12. Shadow of the Beat - Late Post-Apocalyptic City Night [02:57]-Полезные ссылки:
MusicBrainz: Shadow of the Beat — The Shadow Vault
Discogs: Shadow of the Beat — The Shadow Vault
Bandcamp: Shadow of the Beat — The Shadow Vault-

Лог проверки качества

-----------------------
DON'T MODIFY THIS FILE
-----------------------
PERFORMER: auCDtect Task Manager, ver. 1.6.0 RC1 build 1.6.0.1Copyright (c) 2008-2010 y-soft. All rights reserved
ANALYZER: auCDtect: CD records authenticity detector, version 0.8.2Copyright (c) 2004 Oleg Berngardt. All rights reserved.Copyright (c) 2004 Alexander Djourik. All rights reserved.
FILE: 12. Late Post-Apocalyptic City Night.flac Size: 10429258 Hash: 76CB2CB387464ECB1C4F80536FCB9F6B Accuracy: -m0 Conclusion: CDDA 86% Signature: 5C940CF8B18F90E01554C257B4E8E75E5FDC41E3FILE: 11. Wastelands.flac Size: 35358163 Hash: 44554A7F4CA8A6FF91733B3BE738D5EC Accuracy: -m0 Conclusion: CDDA 100% Signature: 33F41FB216B58D17D57E8E3D23F855F518EF1188FILE: 10. My When Clones I Am Out Many.flac Size: 14157613 Hash: 3BA37B240B0325A46643CD8D119A155E Accuracy: -m0 Conclusion: CDDA 100% Signature: E13584BA8F980851D16CE2A8089DA94C677B5C7CFILE: 9. SXYaleetet.flac Size: 22064933 Hash: A0ADC2C40B521003D8888AFE0E2726C2 Accuracy: -m0 Conclusion: CDDA 99% Signature: 430E5309B37FC911FE80669109CEB5D5FACE08E9FILE: 8. Nemesis (Live).flac Size: 23855521 Hash: C6D621B1A43A5F9D016B800FF0D8DD01 Accuracy: -m0 Conclusion: CDDA 100% Signature: 8DEA924D8F1C06326D123F4954E1C632F9DDED0EFILE: 7. Necrotica.flac Size: 27516429 Hash: AA8DA79ACD3BA898D4A3FC7A767D9313 Accuracy: -m0 Conclusion: CDDA 100% Signature: EC5D099D7988C22CDB60A3FCB9D526CA8C69206CFILE: 6. Intruders.flac Size: 44062654 Hash: D47151D947733D6C88144F38C871FE23 Accuracy: -m0 Conclusion: CDDA 100% Signature: 0B3F567FEA3F2819452E452AA35892B7F1465486FILE: 5. Underground Biogenetic Facility.flac Size: 17762357 Hash: 2EEA93A9A2D8465F1C16022708F03C58 Accuracy: -m0 Conclusion: CDDA 100% Signature: 26D21470052958BC22E0AD23F19A31E1F28A750FFILE: 4. Neural Battlefront.flac Size: 34806085 Hash: 8F32D1CD968C8B6241AFEE39904BC9CB Accuracy: -m0 Conclusion: CDDA 100% Signature: 68AB7B311EDA372C1B0C9E4FD5DE4E3C19CC6B9BFILE: 3. Chilly.flac Size: 27854851 Hash: D44097023F215A5DE87EFBA0BE8B237F Accuracy: -m0 Conclusion: CDDA 100% Signature: 363082AC63C058C4C2829EA7201E91D41609F867FILE: 2. Back Of A Cab.flac Size: 37693991 Hash: 192193A98BD62EC16C0DC76069514DD0 Accuracy: -m0 Conclusion: CDDA 100% Signature: 1E18E7E6A7728DBC6022A3B2CF82C5BF575A0E0AFILE: 1. Scared Away.flac Size: 47229801 Hash: 775006EE187BC1B1FAD01629302D81E2 Accuracy: -m0 Conclusion: CDDA 100% Signature: 0FA0C5D576BA69834E98C1DE77C9B53794E60499

Скриншот спектра частот

Замер динамического диапазона (DRM)

foobar2000 1.3.17 / Dynamic Range Meter 1.1.1
log date: 2018-01-25 19:15:07
--------------------------------------------------------------------------------
Analyzed: Shadow of the Beat / The Shadow Vault
--------------------------------------------------------------------------------
DR Peak RMS Duration Track
--------------------------------------------------------------------------------
DR6 -0.10 dB -8.40 dB 7:20 01-Scared Away
DR8 -0.26 dB -10.58 dB 5:31 02-Back Of A Cab
DR10 -0.30 dB -13.23 dB 4:41 03-Chilly
DR11 0.00 dB -15.02 dB 6:29 04-Neural Battlefront
DR10 0.00 dB -12.24 dB 3:25 05-Underground Biogenetic Facility
DR13 -0.30 dB -16.36 dB 6:58 06-Intruders
DR10 -0.30 dB -12.70 dB 4:28 07-Necrotica
DR9 -0.30 dB -12.85 dB 4:26 08-Nemesis (Live)
DR6 0.00 dB -7.54 dB 2:51 09-SXYaleetet
DR13 0.00 dB -14.38 dB 2:48 10-My When Clones I Am Out Many
DR9 -0.30 dB -12.05 dB 5:56 11-Wastelands
DR9 0.00 dB -12.80 dB 2:57 12-Late Post-Apocalyptic City Night
--------------------------------------------------------------------------------
Number of tracks: 12
Official DR value: DR9
Samplerate: 44100 Hz
Channels: 2
Bits per sample: 16
Bitrate: 467 kbps
Codec: FLAC
================================================================================
-Работы автора под другими псевдонимами: Ugress, Shadow of the Beat, Ninja 9000, Nebular Spool, Spokelseskladden, PixxelTyger.
Раздачи автора (по лейбл-коду): Uncanny Planet Records-
Вы не можете начинать темы
Вы не можете отвечать на сообщения
Вы не можете редактировать свои сообщения
Вы не можете удалять свои сообщения
Вы не можете голосовать в опросах
Вы не можете прикреплять файлы к сообщениям
Вы можете скачивать файлы
!ВНИМАНИЕ!

Сайт не предоставляет электронные версии произведений, а занимается лишь коллекционированием и каталогизацией ссылок, присылаемых и публикуемых на форуме нашими читателями. Если вы являетесь правообладателем какого-либо представленного материала и не желаете, чтобы ссылка на него находилась в нашем каталоге, свяжитесь с нами, и мы незамедлительно удалим ее. Файлы для обмена на трекере предоставлены пользователями сайта, и администрация не несет ответственности за их содержание. Просьба не заливать файлы, защищенные авторскими правами, а также файлы нелегального содержания!

Искали программы, игры, дополнения, музыка mp3, аниме, аудио книги, журналы? Добро пожаловать на свободный торрент трекер Torrents, у нас можно скачать бесплатно, без смс и регистрации и прочих ограничений лучшие, отборные сборки программ, игр. Скачать торрентом не составит труда даже не опытному пользователю. Раздачи ежедневно обновляются, только лучшие и качественные раздачи, подробные описания и скриншоты. Огромная коллекция программ для работы со звуком, графикой, дизайном, а так же множество плагинов и инструментов к ним с подробной инструкцией и рекомендациями. Прошивки для навигаторов, карты. Разнообразные игры, для Windows, Linux. В коллекцие есть и старые игры любых жанров, Rpg, Action, Shooter, strategy Множество дополнений, модификаций, сценариев для популярных игр в жанре экш, рпг, гонки, стратегии, логические игры. Множество аддонов и сценариев для Microsoft Flight Simulator Большая коллекция книг, учебников. Если нет возможности купить печатное издание - смело скачивайте цифровую версию книги или, быть может, журнала. Не любите читать - можно загрузить бесплатно аудикнигу. Для веб дизайнеров и программистов так же найдется множество специализированного софта, таких как: редакторы с подсветкой, среды программирования, компоненты, системы управления базами данных, разнообразные скрипты и шаблоны. Не так давно у нас появился материал для автолюбителей и владельцев мото - оригинальные и неоригинальные каталоги запчастей, книги и журналы по ремонту и обслуживанию, видеоуроки, статьи по чип тюнингу, прошивкам. Процедура получения контента элементарная, достаточно просто скачать торрент файл и добавить его в загрузку в вашем торрент клиенте. Если у вас нет специального торрент клиента, вы можете его скачать у нас.