Топ Гир / Top Gear / Сезон 21 / Серии 1-7 (7) (включая Спецвыпуск в Бирме) [2014, UK, Автопередача, HDTV 720p] MVO (AlexFilm) 

AnthonyFREXY 05-Окт-2017 23:57
Цитировать
-Топ Гир / Top Gear
21 сезон
-- Год выхода: 2014
Страна: Великобритания
Жанр: Автопередача
Продолжительность: 7 х ~ 60 мин
Перевод: профессиональный многоголосый закадровый (AlexFilm)
Субтитры: нет-Режиссёры: Фил Черчворд (Phil Churchward), Брайан Клейн (Brian Klein), Конрад Бегг (Konrad Begg), Найджел Симпкисс (Nigel Simpkiss), Бен Дункан (Ben Duncan)
В ролях: Джереми Кларксон (Jeremy Clarkson), Ричард Хаммонд (Richard Hammond), Джеймс Мэй (James May), Стиг (The Stig),-Описание: Top Gear — популярная английская телепередача, посвящённая автомобилям. Первые выпуски передачи появились в 1977 году. Эта передача была просто пересказ журнала, в течение долгого времени формат передачи не менялся. Но в 2002 году, произошёл перезапуск цикла, и вместо сухого пересказа, появился современный "Top Gear", с юмором, приколами и фирменными тестами. Аудитория программ в странах официальной трансляции составляет около 350 миллионов человек.-Релиз:
Перевод: Полина Суворова (1, 3-5), Константин Кривоногов (2, 6, 7)
Монтаж и сведение звука: Сергей Мартынов
Роли озвучивали:
  • Александр Дасевич
  • Константин Погодаев
  • Роман Сопко
  • Евгения Тихонова (1)
  • Татьяна Манетина (2, 3)
- -Качество видео: HDTV 720p (CtrlHD)
Формат: MKV
Видео кодек: x264
Аудио кодек: AC3
Видео: 1280x720 (16:9), 50/25 fps, MPEG-4 AVC ~4500 kbps avg, 0.195 bit/pixel
Аудио Rus: 48 kHz, AC3 Dolby Digital, 2/0 (L,R) ch, ~192.00 kbps avg
Аудио Eng: 48 kHz, AC3 Dolby Digital, 2/0 (L,R) ch, ~192.00 kbps avg
This is a variable framerate encode of Top Gear. Studio sections + celebrity/Stig laps are shot at 50fps, while the films are shot at 25fps. This VFR encode presents each section at the correct framerate, so no bits are wasted, and no unique frames are thrown out (like in the scene encode).
-Список и описание серий-
    Top Gear 21х01-
  • Ведущие покупают хэтчбеки 80-х годов в надежде доказать их превосходство перед современными аналогами.
  • Знаменитость в бюджетном авто: Хью Бонневилль, британский актер.
-
    Top Gear 21х02-
  • Ричард Хаммонд ездит на Alfa Romeo 4C в Северной Италии и Джереми Кларксон присоединяется к нему на специальном квадроцикле в гонке вокруг озера Комо.
  • Джеймс Мэй посещает Афганистан, чтобы узнать о транспортных средствах, которые используют британские военные и как они собираются вернуть их всех домой.
  • Джереми Кларксон тестирует поразительную McLaren P1.
  • Знаменитость в бюджетном авто: Том Хиддлстон, актер (Локи в фильме «Тор»).
-
    Top Gear 21х03-
  • Джереми Кларксон тестирует суперкар из Дании Zenvo ST1.
  • Путешествие в Украину на трех компактных малолитражках: Кларксон на Volkswagen Up, Мэй на Dacia Sandero и Хаммонд на Ford Fiesta.
  • Знаменитость в бюджетном авто: Джеймс Блант, английский певец и музыкант.
-
    Top Gear 21х04-
  • Джеймс Мэй тестирует новейшие Caterham - ослепительно быстрый Seven 620 R и медленный (лучший?) Seven 160. Caterham Aeroseven Concept также показан.
  • Джереми Кларксон садится за руль Alfa Romeo Disco Volante.
  • Ричард Хаммонд отправляется в Объединенные Арабские Эмираты чтобы управлять Mercedes-Benz G63 AMG 6×6.
  • Джереми Кларксон интересуется, может ли автомобиль стянуть скатерть со стола, не разбив при этом посуду.
  • Знаменитость в бюджетном авто: Джэк Уайтхолл, актёр.
-
    Top Gear 21х05-
  • Джереми сравнивает три горячих хэтчбека.
  • Ричард Хаммонд в Абу-Даби тестирует новый гибридный гиперкар Porsche 918.
  • Джереми Кларксон и Джеймс Мэй снимают фильм для пропаганды велосипедных прогулок.
  • Знаменитость в бюджетном авто: Аарон Пол, американский актёр. Лауреат премии «Эмми» ("Во все тяжкие").
-
    Top Gear 21х06-07 Спецвыпуск в Бирме (Burma Special)-
  • Команда Top Gear отправляется в Бирму на трех подержанных грузовиках, купленных в интернете, чтобы построить мост через реку Квай.
-

Скриншоты


MediaInfo

Format : Matroska
Format version : Version 4 / Version 2
File size : 2.15 GiB
Duration : 1h 1mn
Overall bit rate : 4 968 Kbps
Movie name : Top Gear 21x01 @ AlexFilm
Encoded date : UTC 2014-02-12 11:39:06
Writing application : mkvmerge v6.6.0 ('The Edge Of The In Between') built on Dec 1 2013 17:55:00
Writing library : libebml v1.3.0 + libmatroska v1.4.1
Video
ID : 1
Format : AVC
Format/Info : Advanced Video Codec
Format profile : [email protected]
Format settings, CABAC : Yes
Format settings, ReFrames : 9 frames
Codec ID : V_MPEG4/ISO/AVC
Duration : 1h 1mn
Bit rate : 4 485 Kbps
Width : 1 280 pixels
Height : 720 pixels
Display aspect ratio : 16:9
Frame rate mode : Constant
Frame rate : 25.000 fps
Color space : YUV
Chroma subsampling : 4:2:0
Bit depth : 8 bits
Scan type : Progressive
Bits/(Pixel*Frame) : 0.195
Stream size : 1.94 GiB (90%)
Writing library : x264 core 133 r2334 a3ac64b
Encoding settings : cabac=1 / ref=9 / deblock=1:0:0 / analyse=0x3:0x133 / me=umh / subme=10 / psy=1 / psy_rd=1.00:0.00 / mixed_ref=1 / me_range=24 / chroma_me=1 / trellis=2 / 8x8dct=1 / cqm=0 / deadzone=21,11 / fast_pskip=1 / chroma_qp_offset=-2 / threads=6 / lookahead_threads=1 / sliced_threads=0 / nr=0 / decimate=1 / interlaced=0 / bluray_compat=0 / constrained_intra=0 / bframes=8 / b_pyramid=2 / b_adapt=2 / b_bias=0 / direct=3 / weightb=1 / open_gop=0 / weightp=2 / keyint=250 / keyint_min=25 / scenecut=40 / intra_refresh=0 / rc_lookahead=60 / rc=crf / mbtree=1 / crf=18.0 / qcomp=0.60 / qpmin=0 / qpmax=69 / qpstep=4 / ip_ratio=1.40 / aq=1:1.00
Language : English
Default : Yes
Forced : No
Audio #1
ID : 2
Format : AC-3
Format/Info : Audio Coding 3
Mode extension : CM (complete main)
Format settings, Endianness : Big
Codec ID : A_AC3
Duration : 1h 1mn
Bit rate mode : Constant
Bit rate : 192 Kbps
Channel(s) : 2 channels
Channel positions : Front: L R
Sampling rate : 48.0 KHz
Bit depth : 16 bits
Compression mode : Lossy
Stream size : 85.1 MiB (4%)
Title : DD2.0 AlexFilm
Language : Russian
Default : Yes
Forced : No
Audio #2
ID : 3
Format : AC-3
Format/Info : Audio Coding 3
Mode extension : CM (complete main)
Format settings, Endianness : Big
Codec ID : A_AC3
Duration : 1h 1mn
Bit rate mode : Constant
Bit rate : 192 Kbps
Channel(s) : 2 channels
Channel positions : Front: L R
Sampling rate : 48.0 KHz
Bit depth : 16 bits
Compression mode : Lossy
Stream size : 85.1 MiB (4%)
Title : DD2.0 Original
Language : English
Default : No
Forced : No
-Раздачи Top Gear в озвучке AlexFilm-
Вы не можете начинать темы
Вы не можете отвечать на сообщения
Вы не можете редактировать свои сообщения
Вы не можете удалять свои сообщения
Вы не можете голосовать в опросах
Вы не можете прикреплять файлы к сообщениям
Вы можете скачивать файлы
!ВНИМАНИЕ!

Сайт не предоставляет электронные версии произведений, а занимается лишь коллекционированием и каталогизацией ссылок, присылаемых и публикуемых на форуме нашими читателями. Если вы являетесь правообладателем какого-либо представленного материала и не желаете, чтобы ссылка на него находилась в нашем каталоге, свяжитесь с нами, и мы незамедлительно удалим ее. Файлы для обмена на трекере предоставлены пользователями сайта, и администрация не несет ответственности за их содержание. Просьба не заливать файлы, защищенные авторскими правами, а также файлы нелегального содержания!

Искали программы, игры, дополнения, музыка mp3, аниме, аудио книги, журналы? Добро пожаловать на свободный торрент трекер Torrents, у нас можно скачать бесплатно, без смс и регистрации и прочих ограничений лучшие, отборные сборки программ, игр. Скачать торрентом не составит труда даже не опытному пользователю. Раздачи ежедневно обновляются, только лучшие и качественные раздачи, подробные описания и скриншоты. Огромная коллекция программ для работы со звуком, графикой, дизайном, а так же множество плагинов и инструментов к ним с подробной инструкцией и рекомендациями. Прошивки для навигаторов, карты. Разнообразные игры, для Windows, Linux. В коллекцие есть и старые игры любых жанров, Rpg, Action, Shooter, strategy Множество дополнений, модификаций, сценариев для популярных игр в жанре экш, рпг, гонки, стратегии, логические игры. Множество аддонов и сценариев для Microsoft Flight Simulator Большая коллекция книг, учебников. Если нет возможности купить печатное издание - смело скачивайте цифровую версию книги или, быть может, журнала. Не любите читать - можно загрузить бесплатно аудикнигу. Для веб дизайнеров и программистов так же найдется множество специализированного софта, таких как: редакторы с подсветкой, среды программирования, компоненты, системы управления базами данных, разнообразные скрипты и шаблоны. Не так давно у нас появился материал для автолюбителей и владельцев мото - оригинальные и неоригинальные каталоги запчастей, книги и журналы по ремонту и обслуживанию, видеоуроки, статьи по чип тюнингу, прошивкам. Процедура получения контента элементарная, достаточно просто скачать торрент файл и добавить его в загрузку в вашем торрент клиенте. Если у вас нет специального торрент клиента, вы можете его скачать у нас.